<?xml version="1.0" standalone="no"?>
<!DOCTYPE svg PUBLIC "-//W3C//DTD SVG 1.1//EN" "http://www.w3.org/Graphics/SVG/1.1/DTD/svg11.dtd" >
<svg>
<metadata>
Created by FontForge 20090622 at Sat Oct  3 19:19:23 2020
 By deploy user
Digitized data copyright 2012-2016, The Mozilla Foundation and Telefonica S.A.
</metadata>
<defs>
<font id="FiraSans-Regular" horiz-adv-x="560" >
  <font-face 
    font-family="Fira Sans"
    font-weight="400"
    font-stretch="normal"
    units-per-em="1000"
    panose-1="2 11 5 3 5 0 0 2 0 4"
    ascent="800"
    descent="-200"
    x-height="527"
    cap-height="689"
    bbox="-756 -353 1360 1104"
    underline-thickness="50"
    underline-position="-50"
    unicode-range="U+000D-U+FEFF"
  />
<missing-glyph horiz-adv-x="666" 
d="M543 1050v-1400h-420v1400h420zM489 998h-311v-1296h311v1296zM324 451q111 0 111 -115q0 -104 -95 -118v-45q0 -11 -7.5 -17.5t-17.5 -6.5t-17.5 6.5t-7.5 17.5v84q53 3 72 19.5t19 57.5q0 33 -13 51t-48 18q-29 0 -52 -11q-7 -3 -13 -3q-24 0 -24 23q0 19 29.5 29
t63.5 10zM315 120q15 0 25 -10t10 -25q0 -16 -10 -26.5t-25 -10.5t-25 10.5t-10 26.5q0 15 10 25t25 10z" />
    <glyph glyph-name="fi" unicode="fi" horiz-adv-x="575" 
d="M276 750q76 0 146 -36l-32 -64q-52 25 -111 25q-53 0 -73 -19t-20 -59v-70h294v-527h-92v456h-202v-456h-92v456h-84v71h84v69q0 70 45 112t137 42z" />
    <glyph glyph-name="fl" unicode="fl" horiz-adv-x="592" 
d="M548 70l24 -64q-38 -18 -78 -18q-51 0 -78 29.5t-27 86.5v555q-57 17 -115 17q-49 0 -68.5 -18t-19.5 -58v-73h128l-10 -71h-118v-456h-92v456h-84v71h84v72q0 69 44.5 110t129.5 41q59 0 122 -20l91 12v-636q0 -42 33 -42q19 0 34 6z" />
    <glyph glyph-name=".notdef" horiz-adv-x="666" 
d="M543 1050v-1400h-420v1400h420zM489 998h-311v-1296h311v1296zM324 451q111 0 111 -115q0 -104 -95 -118v-45q0 -11 -7.5 -17.5t-17.5 -6.5t-17.5 6.5t-7.5 17.5v84q53 3 72 19.5t19 57.5q0 33 -13 51t-48 18q-29 0 -52 -11q-7 -3 -13 -3q-24 0 -24 23q0 19 29.5 29
t63.5 10zM315 120q15 0 25 -10t10 -25q0 -16 -10 -26.5t-25 -10.5t-25 10.5t-10 26.5q0 15 10 25t25 10z" />
    <glyph glyph-name=".null" horiz-adv-x="0" 
 />
    <glyph glyph-name="nonmarkingreturn" horiz-adv-x="333" 
 />
    <glyph glyph-name="CR" unicode="&#xd;" horiz-adv-x="265" 
 />
    <glyph glyph-name="space" unicode=" " horiz-adv-x="265" 
 />
    <glyph glyph-name="exclam" unicode="!" horiz-adv-x="241" 
d="M170 689l-10 -459h-81l-11 459h102zM120 127q30 0 50 -20t20 -49t-20 -49.5t-50 -20.5q-29 0 -49 20.5t-20 49.5t20 49t49 20z" />
    <glyph glyph-name="quotedbl" unicode="&#x22;" horiz-adv-x="399" 
d="M75 427l-15 262h99l-15 -262h-69zM255 427l-15 262h99l-15 -262h-69z" />
    <glyph glyph-name="numbersign" unicode="#" horiz-adv-x="518" 
d="M503 447h-76l-28 -215h67v-69h-77l-21 -163h-78l21 163h-154l-21 -163h-78l21 163h-64v69h74l28 215h-65v70h74l20 152h78l-20 -152h154l20 152h78l-20 -152h67v-70zM321 232l28 215h-154l-28 -215h154z" />
    <glyph glyph-name="dollar" unicode="$" horiz-adv-x="531" 
d="M491 186q0 -76 -48 -128t-133 -66v-147h-80v144q-123 6 -205 86l54 59q72 -70 172 -70q63 0 103.5 31t40.5 88q0 49 -30 76t-115 53q-103 32 -150.5 75.5t-47.5 117.5q0 70 49 117t129 56v146h80v-147q90 -9 160 -75l-53 -58q-64 60 -150 60q-53 0 -86.5 -24.5
t-33.5 -70.5q0 -43 29 -68t117 -52q46 -14 77 -28t61 -37t45 -57.5t15 -80.5z" />
    <glyph glyph-name="percent" unicode="%" horiz-adv-x="826" 
d="M613 711l64 -42l-463 -700l-64 42zM207 679q72 0 117.5 -46t45.5 -123t-45.5 -123t-117.5 -46q-71 0 -116.5 46t-45.5 123t45.5 123t116.5 46zM207 617q-81 0 -81 -107t81 -107t81 107t-81 107zM619 326q72 0 117 -46t45 -123t-45 -123t-117 -46t-117.5 46t-45.5 123
t45.5 123t117.5 46zM619 263q-81 0 -81 -106q0 -107 81 -107t81 107q0 106 -81 106z" />
    <glyph glyph-name="ampersand" unicode="&#x26;" horiz-adv-x="729" 
d="M302 701q81 0 132 -43t51 -109q0 -59 -37.5 -101.5t-103.5 -81.5l176 -166q40 81 60 169l86 -25q-35 -116 -89 -197l112 -105l-66 -54l-97 94q-86 -94 -221 -94q-100 0 -162 51t-62 136q0 62 35 108.5t104 90.5q-50 48 -73.5 86t-23.5 86q0 68 47.5 111.5t131.5 43.5z
M303 633q-42 0 -66 -24t-24 -62q0 -36 19 -64.5t60 -67.5q51 31 77 61.5t26 67.5q0 42 -25 65.5t-67 23.5zM273 324q-98 -64 -98 -146q0 -55 38.5 -86t101.5 -31q88 0 158 72z" />
    <glyph glyph-name="quotesingle" unicode="'" horiz-adv-x="219" 
d="M75 427l-15 262h99l-15 -262h-69z" />
    <glyph glyph-name="parenleft" unicode="(" horiz-adv-x="324" 
d="M226 845l58 -40q-78 -115 -113 -211t-35 -244t35 -244t113 -211l-58 -40q-42 59 -58.5 84t-47.5 80t-44 96.5t-24.5 103.5t-11.5 131t11.5 131t24.5 103.5t44 96.5t47.5 80t58.5 84z" />
    <glyph glyph-name="parenright" unicode=")" horiz-adv-x="324" 
d="M98 845q42 -59 58.5 -84t47.5 -80t44 -96.5t24.5 -103.5t11.5 -131t-11.5 -131t-24.5 -103.5t-44 -96.5t-47.5 -80t-58.5 -84l-58 40q78 115 113 211t35 244t-35 244t-113 211z" />
    <glyph glyph-name="asterisk" unicode="*" horiz-adv-x="439" 
d="M419 561l-153 -33l104 -116l-72 -53l-79 134l-78 -134l-72 52l103 117l-152 33l27 82l142 -61l-15 157h90l-15 -158l142 63z" />
    <glyph glyph-name="plus" unicode="+" horiz-adv-x="499" 
d="M291 519v-150h146v-76h-146v-149h-84v149h-145v76h145v150h84z" />
    <glyph glyph-name="comma" unicode="," horiz-adv-x="240" 
d="M119 127q30 0 50 -20t20 -49q0 -31 -18 -71l-67 -153h-66l40 166q-28 21 -28 58q0 29 20 49t49 20z" />
    <glyph glyph-name="hyphen" unicode="-" horiz-adv-x="403" 
d="M60 274v78h283v-78h-283z" />
    <glyph glyph-name="period" unicode="." horiz-adv-x="240" 
d="M119 127q30 0 50 -20t20 -49t-20 -49.5t-50 -20.5q-29 0 -49 20.5t-20 49.5t20 49t49 20z" />
    <glyph glyph-name="slash" unicode="/" horiz-adv-x="520" 
d="M337 807l78 -18l-231 -893l-79 19z" />
    <glyph glyph-name="zero" unicode="0" horiz-adv-x="558" 
d="M279 679q111 0 167.5 -88.5t56.5 -256.5t-56.5 -257t-167.5 -89t-167.5 89t-56.5 257t56.5 256.5t167.5 88.5zM279 606q-65 0 -96.5 -64t-31.5 -208t31.5 -208.5t96.5 -64.5q64 0 96 64.5t32 208.5q0 143 -32 207.5t-96 64.5z" />
    <glyph glyph-name="one" unicode="1" horiz-adv-x="433" 
d="M323 669v-669h-92v571l-156 -95l-40 65l207 128h81z" />
    <glyph glyph-name="two" unicode="2" horiz-adv-x="495" 
d="M228 679q91 0 146 -52t55 -131q0 -47 -14 -88t-53.5 -93.5t-85 -101.5l-132.5 -136h301l-11 -77h-395v73q189 197 241.5 269t52.5 150q0 52 -30 81.5t-80 29.5q-41 0 -72 -17t-66 -56l-60 48q81 101 203 101z" />
    <glyph glyph-name="three" unicode="3" horiz-adv-x="499" 
d="M225 679q92 0 145 -49.5t53 -120.5q0 -61 -35.5 -100.5t-94.5 -53.5q67 -6 109 -48t42 -114q0 -89 -62.5 -147t-165.5 -58q-126 0 -201 90l55 51q63 -66 143 -66q63 0 99 35.5t36 95.5q0 66 -34 93t-99 27h-50l11 71h34q52 0 86.5 31t34.5 87q0 47 -30 74.5t-81 27.5
q-74 0 -138 -60l-48 55q85 79 191 79z" />
    <glyph glyph-name="four" unicode="4" horiz-adv-x="532" 
d="M502 238v-73h-87v-165h-89v165h-286v66l201 448l77 -32l-181 -409h190l8 180h80v-180h87z" />
    <glyph glyph-name="five" unicode="5" horiz-adv-x="501" 
d="M433 669l-13 -72h-261v-197q51 26 107 26q86 0 138 -56.5t52 -155.5q0 -100 -64 -163t-168 -63q-115 0 -198 85l54 53q63 -63 143 -63q64 0 100.5 40t36.5 113q0 139 -122 139q-46 0 -95 -23h-72v337h362z" />
    <glyph glyph-name="six" unicode="6" horiz-adv-x="533" 
d="M308 440q78 0 131.5 -55.5t53.5 -157.5q0 -107 -61 -173t-152 -66q-117 0 -171 86.5t-54 239.5q0 166 68 265.5t185 99.5q76 0 138 -41l-36 -61q-47 29 -103 29q-72 0 -114 -69t-46 -185q62 88 161 88zM280 61q58 0 89 44t31 119q0 143 -108 143q-87 0 -144 -92
q3 -110 34.5 -162t97.5 -52z" />
    <glyph glyph-name="seven" unicode="7" horiz-adv-x="444" 
d="M414 669v-69l-250 -610l-84 28l241 576h-296v75h389z" />
    <glyph glyph-name="eight" unicode="8" horiz-adv-x="551" 
d="M365 359q141 -57 141 -180q0 -84 -65 -137.5t-167 -53.5q-103 0 -166 53t-63 136q0 116 132 174q-104 52 -104 156q0 80 60.5 126t142.5 46t142.5 -44.5t60.5 -124.5q0 -50 -28 -86t-86 -65zM276 610q-52 0 -82.5 -27t-30.5 -77q0 -48 29.5 -73t94.5 -46l17 -6
q45 26 65 55t20 71q0 47 -29.5 75t-83.5 28zM275 61q62 0 98.5 32t36.5 85t-31.5 83t-114.5 58l-25 9q-98 -48 -98 -151q0 -55 36 -85.5t98 -30.5z" />
    <glyph glyph-name="nine" unicode="9" horiz-adv-x="525" 
d="M259 679q106 0 161 -69.5t55 -190.5q0 -103 -20 -175.5t-66.5 -123t-109.5 -82.5t-160 -60l-21 69q134 38 205.5 103t76.5 173q-52 -80 -150 -80q-80 0 -132.5 58.5t-52.5 156.5q0 102 61.5 161.5t152.5 59.5zM249 315q79 0 133 83q2 111 -27.5 159.5t-93.5 48.5
q-59 0 -91 -39t-32 -111q0 -70 30 -105.5t81 -35.5z" />
    <glyph glyph-name="colon" unicode=":" horiz-adv-x="240" 
d="M119 495q30 0 50 -20t20 -49t-20 -49.5t-50 -20.5q-29 0 -49 20.5t-20 49.5t20 49t49 20zM119 127q30 0 50 -20t20 -49t-20 -49.5t-50 -20.5q-29 0 -49 20.5t-20 49.5t20 49t49 20z" />
    <glyph glyph-name="semicolon" unicode=";" horiz-adv-x="240" 
d="M119 495q30 0 50 -20t20 -49t-20 -49.5t-50 -20.5q-29 0 -49 20.5t-20 49.5t20 49t49 20zM119 127q30 0 50 -20t20 -49q0 -31 -18 -71l-67 -153h-66l40 166q-28 21 -28 58q0 29 20 49t49 20z" />
    <glyph glyph-name="less" unicode="&#x3c;" horiz-adv-x="500" 
d="M417 551l33 -76l-327 -142l327 -144l-33 -74l-367 171v94z" />
    <glyph glyph-name="equal" unicode="=" horiz-adv-x="500" 
d="M62 389v77h376v-77h-376zM62 196v77h376v-77h-376z" />
    <glyph glyph-name="greater" unicode="&#x3e;" horiz-adv-x="500" 
d="M83 551l367 -171v-94l-367 -171l-33 74l327 144l-327 142z" />
    <glyph glyph-name="question" unicode="?" horiz-adv-x="459" 
d="M238 701q90 0 140.5 -46t50.5 -110q0 -44 -18.5 -76t-45.5 -51l-53.5 -36.5t-45 -44t-18.5 -62.5v-45h-91v50q0 46 18 80t44 53t52 35.5t44 39t18 51.5q0 41 -27 63.5t-74 22.5q-80 0 -139 -72l-63 49q84 99 208 99zM205 127q30 0 50 -20t20 -49t-20 -49.5t-50 -20.5
q-29 0 -49 20.5t-20 49.5t20 49t49 20z" />
    <glyph glyph-name="at" unicode="@" horiz-adv-x="1020" 
d="M526 701q199 0 311.5 -114t112.5 -280q0 -130 -50 -214t-147 -84q-56 0 -87.5 31t-40.5 72q-44 -101 -144 -101q-80 0 -126.5 60t-46.5 160q0 126 60 193.5t158 67.5q82 0 157 -40v-259q0 -62 17 -87.5t51 -25.5q106 0 106 225q0 148 -85.5 234t-245.5 86
q-166 0 -264.5 -108t-98.5 -277q0 -170 96 -273.5t267 -103.5q95 0 192 34l25 -71q-112 -39 -218 -39q-203 0 -329 123.5t-126 329.5q0 198 127 329.5t329 131.5zM492 78q75 0 108 86v247q-33 15 -71 15q-131 0 -131 -195q0 -153 94 -153z" />
    <glyph glyph-name="A" unicode="A" horiz-adv-x="573" 
d="M467 0l-52 173h-261l-52 -173h-96l221 689h120l220 -689h-100zM177 250h215l-107 360z" />
    <glyph glyph-name="B" unicode="B" horiz-adv-x="608" 
d="M404 364q71 -12 115 -50t44 -118q0 -196 -273 -196h-190v689h163q270 0 270 -174q0 -60 -37.5 -100t-91.5 -51zM273 614h-78v-217h104q60 0 98.5 29t38.5 82q0 60 -40.5 83t-122.5 23zM290 76q84 0 128.5 25t44.5 95q0 68 -43 98t-112 30h-113v-248h95z" />
    <glyph glyph-name="C" unicode="C" 
d="M341 701q62 0 104.5 -16t86.5 -52l-52 -61q-63 51 -133 51q-86 0 -138.5 -66t-52.5 -212q0 -142 52 -209.5t138 -67.5q70 0 147 57l47 -60q-75 -77 -197 -77q-129 0 -208.5 93.5t-79.5 263.5q0 168 81.5 262t204.5 94z" />
    <glyph glyph-name="D" unicode="D" horiz-adv-x="644" 
d="M244 689q57 0 103.5 -7.5t93 -30t78 -59.5t51 -99t19.5 -145q0 -81 -19.5 -143.5t-51 -100.5t-75.5 -62t-87 -33t-91 -9h-165v689h144zM265 613h-70v-538h77q35 0 64 6.5t58.5 24.5t49 47.5t32 79t12.5 115.5q0 67 -13 116.5t-33.5 77.5t-51 44.5t-59.5 21.5t-66 5z" />
    <glyph glyph-name="E" unicode="E" horiz-adv-x="535" 
d="M473 689l-11 -76h-267v-225h232v-76h-232v-236h286v-76h-381v689h373z" />
    <glyph glyph-name="F" unicode="F" horiz-adv-x="491" 
d="M100 0v689h366l-11 -76h-260v-235h225v-75h-225v-303h-95z" />
    <glyph glyph-name="G" unicode="G" horiz-adv-x="631" 
d="M354 701q65 0 112.5 -18.5t94.5 -57.5l-56 -58q-69 56 -151 56q-83 0 -140.5 -68t-57.5 -210q0 -145 47.5 -212t140.5 -67q76 0 131 31v208h-122l-11 77h227v-333q-107 -61 -225 -61q-136 0 -212.5 91t-76.5 266q0 167 86.5 261.5t212.5 94.5z" />
    <glyph glyph-name="H" unicode="H" horiz-adv-x="680" 
d="M485 0v323h-290v-323h-95v689h95v-288h290v288h95v-689h-95z" />
    <glyph glyph-name="I" unicode="I" horiz-adv-x="295" 
d="M195 689v-689h-95v689h95z" />
    <glyph glyph-name="J" unicode="J" horiz-adv-x="305" 
d="M210 689v-593q0 -102 -44.5 -153t-135.5 -80l-25 69q66 26 88 61.5t22 106.5v589h95z" />
    <glyph glyph-name="K" unicode="K" horiz-adv-x="589" 
d="M195 689v-689h-95v689h95zM570 689l-261 -315l280 -374h-117l-272 368l262 321h108z" />
    <glyph glyph-name="L" unicode="L" horiz-adv-x="498" 
d="M195 689v-606h283l-11 -83h-367v689h95z" />
    <glyph glyph-name="M" unicode="M" horiz-adv-x="778" 
d="M659 689l57 -689h-92l-24 311q-15 183 -17 281l-149 -514h-89l-157 515q0 -125 -13 -289l-23 -304h-90l57 689h128l145 -501l138 501h129z" />
    <glyph glyph-name="N" unicode="N" horiz-adv-x="683" 
d="M583 689v-689h-127l-280 585q13 -148 13 -269v-316h-89v689h124l283 -586q-13 104 -13 210v376h89z" />
    <glyph glyph-name="O" unicode="O" horiz-adv-x="692" 
d="M346 701q133 0 212 -93.5t79 -263.5q0 -168 -79.5 -262t-211.5 -94t-211.5 93t-79.5 262q0 168 80 263t211 95zM346 623q-190 0 -190 -280q0 -143 50.5 -210t139.5 -67q190 0 190 278q0 279 -190 279z" />
    <glyph glyph-name="P" unicode="P" horiz-adv-x="581" 
d="M281 689q128 0 198 -53.5t70 -159.5q0 -113 -73 -168t-194 -55h-87v-253h-95v689h181zM278 328q83 0 126.5 32t43.5 115q0 140 -168 140h-85v-287h83z" />
    <glyph glyph-name="Q" unicode="Q" horiz-adv-x="691" 
d="M479 39q98 0 187 -62l-62 -80q-60 53 -114 73t-146 20q-131 0 -210 92t-79 261q0 168 80 263t211 95q133 0 212 -93.5t79 -263.5q0 -121 -40 -192.5t-118 -112.5zM156 343q0 -143 50.5 -210t139.5 -67q190 0 190 278q0 279 -190 279t-190 -280z" />
    <glyph glyph-name="R" unicode="R" horiz-adv-x="605" 
d="M467 0l-165 292h-107v-292h-95v689h181q262 0 262 -195q0 -140 -149 -185l186 -309h-113zM195 365h96q151 0 151 129q0 64 -38.5 92.5t-123.5 28.5h-85v-250z" />
    <glyph glyph-name="S" unicode="S" horiz-adv-x="545" 
d="M270 701q124 0 213 -80l-52 -58q-74 60 -157 60q-54 0 -89 -25t-35 -73q0 -45 30 -70.5t121 -53.5q48 -15 79.5 -29t62.5 -38t46.5 -59t15.5 -83q0 -92 -66 -148t-180 -56q-143 0 -234 89l52 58q85 -69 181 -69q64 0 106 31.5t42 91.5q0 51 -31 78.5t-118 54.5
q-106 32 -155 77t-49 122q0 79 61 129.5t156 50.5z" />
    <glyph glyph-name="T" unicode="T" horiz-adv-x="517" 
d="M507 689l-10 -81h-191v-608h-95v608h-196v81h492z" />
    <glyph glyph-name="U" unicode="U" horiz-adv-x="662" 
d="M572 689v-468q0 -105 -64 -169t-178 -64q-115 0 -177.5 63.5t-62.5 169.5v468h95v-461q0 -160 145 -160q146 0 146 160v461h96z" />
    <glyph glyph-name="V" unicode="V" horiz-adv-x="556" 
d="M550 689l-220 -689h-102l-222 689h102l173 -586l173 586h96z" />
    <glyph glyph-name="W" unicode="W" horiz-adv-x="826" 
d="M801 689l-140 -689h-122l-127 577l-128 -577h-119l-140 689h93l111 -606l133 606h101l136 -606l115 606h87z" />
    <glyph glyph-name="X" unicode="X" horiz-adv-x="540" 
d="M325 372l210 -372h-108l-159 305l-161 -305h-102l207 367l-189 322h108l139 -259l140 259h102z" />
    <glyph glyph-name="Y" unicode="Y" horiz-adv-x="550" 
d="M545 689l-222 -424v-265h-96v264l-222 425h105l168 -341l168 341h99z" />
    <glyph glyph-name="Z" unicode="Z" horiz-adv-x="522" 
d="M477 689v-77l-341 -531h341l-11 -81h-436v76l344 533h-308v80h411z" />
    <glyph glyph-name="bracketleft" unicode="[" horiz-adv-x="322" 
d="M272 816v-77h-120v-779h120v-76h-207v932h207z" />
    <glyph glyph-name="backslash" unicode="\" horiz-adv-x="520" 
d="M183 807l232 -892l-79 -19l-231 893z" />
    <glyph glyph-name="bracketright" unicode="]" horiz-adv-x="322" 
d="M257 816v-932h-207v76h120v779h-120v77h207z" />
    <glyph glyph-name="asciicircum" unicode="^" horiz-adv-x="540" 
d="M311 840l189 -313h-98l-133 233l-132 -233h-97l189 313h82z" />
    <glyph glyph-name="underscore" unicode="_" horiz-adv-x="520" 
d="M17 -142v79h486v-79h-486z" />
    <glyph glyph-name="grave" unicode="`" horiz-adv-x="300" 
d="M71 801l199 -114l-28 -49l-212 86z" />
    <glyph glyph-name="a" unicode="a" horiz-adv-x="544" 
d="M450 123q0 -32 11 -47.5t33 -23.5l-21 -64q-82 9 -103 79q-53 -79 -157 -79q-78 0 -123 44t-45 115q0 84 60.5 129t171.5 45h81v39q0 56 -27 80t-83 24q-58 0 -142 -28l-23 67q97 36 182 36q185 0 185 -175v-241zM234 57q79 0 124 82v121h-69q-146 0 -146 -108
q0 -95 91 -95z" />
    <glyph glyph-name="b" unicode="b" horiz-adv-x="594" 
d="M336 539q90 0 143 -72.5t53 -202.5q0 -125 -56 -200.5t-151 -75.5q-83 0 -140 70l-9 -58h-81v739l92 11v-289q57 78 149 78zM303 61q61 0 95.5 49.5t34.5 153.5q0 202 -123 202q-70 0 -123 -82v-252q46 -71 116 -71z" />
    <glyph glyph-name="c" unicode="c" horiz-adv-x="478" 
d="M287 539q93 0 161 -57l-44 -58q-54 39 -113 39q-64 0 -99.5 -51t-35.5 -151q0 -195 135 -195q53 0 115 40l42 -60q-72 -58 -161 -58q-107 0 -168.5 72t-61.5 199t62 203.5t168 76.5z" />
    <glyph glyph-name="d" unicode="d" horiz-adv-x="598" 
d="M411 750l92 -11v-739h-81l-9 73q-55 -85 -152 -85q-94 0 -146.5 74t-52.5 199q0 123 56 200.5t151 77.5q81 0 142 -65v276zM281 61q42 0 72 19.5t58 58.5v258q-54 69 -122 69q-61 0 -94.5 -51t-33.5 -152q0 -202 120 -202z" />
    <glyph glyph-name="e" unicode="e" horiz-adv-x="545" 
d="M493 279q0 -23 -2 -47h-336q12 -169 142 -169q71 0 137 46l40 -55q-84 -66 -184 -66q-110 0 -171.5 72t-61.5 198q0 125 59 203t160 78q105 0 161 -69t56 -191zM402 300v6q0 160 -124 160q-113 0 -123 -166h247z" />
    <glyph glyph-name="f" unicode="f" horiz-adv-x="335" 
d="M274 676q-42 0 -60 -18.5t-18 -57.5v-73h128l-10 -71h-118v-456h-92v456h-94v71h94v72q0 68 43.5 109.5t121.5 41.5q63 0 126 -27l-29 -67q-45 20 -92 20z" />
    <glyph glyph-name="g" unicode="g" horiz-adv-x="520" 
d="M493 586l27 -83q-50 -16 -154 -16q93 -42 93 -133q0 -79 -54 -129t-147 -50q-36 0 -67 10q-26 -19 -26 -49q0 -43 69 -43h84q80 0 130 -41t50 -105q0 -77 -63 -118.5t-184 -41.5q-125 0 -175.5 38.5t-50.5 121.5h83q0 -47 30 -67.5t113 -20.5t118.5 20.5t35.5 61.5
q0 75 -106 75h-83q-67 0 -101.5 28.5t-34.5 71.5q0 55 58 93q-89 47 -89 146q0 81 57.5 132.5t145.5 51.5q62 -1 109 6t69.5 15t62.5 26zM252 473q-52 0 -80.5 -32.5t-28.5 -85.5q0 -54 29 -86.5t82 -32.5q54 0 82.5 31.5t28.5 88.5q0 117 -113 117z" />
    <glyph glyph-name="h" unicode="h" horiz-adv-x="586" 
d="M343 539q72 0 112.5 -43t40.5 -118v-378h-92v365q0 56 -21.5 79t-62.5 23q-74 0 -133 -92v-375h-92v738l92 10v-294q62 85 156 85z" />
    <glyph glyph-name="i" unicode="i" horiz-adv-x="282" 
d="M140 780q29 0 47 -18t18 -45t-18 -44.5t-47 -17.5q-28 0 -46 17.5t-18 44.5t18 45t46 18zM187 527v-527h-92v527h92z" />
    <glyph glyph-name="j" unicode="j" horiz-adv-x="280" 
d="M139 780q29 0 47 -18t18 -45t-18 -44.5t-47 -17.5q-28 0 -46 17.5t-18 44.5t18 45t46 18zM185 527v-495q0 -55 -9.5 -93.5t-32.5 -66t-51 -45.5t-74 -39l-27 67q39 18 58.5 34t31.5 49t12 88v501h92z" />
    <glyph glyph-name="k" unicode="k" horiz-adv-x="512" 
d="M187 750v-750h-92v739zM490 527l-194 -233l216 -294h-110l-209 288l194 239h103z" />
    <glyph glyph-name="l" unicode="l" horiz-adv-x="293" 
d="M200 -12q-51 0 -80.5 30.5t-29.5 85.5v635l92 11v-644q0 -42 33 -42q19 0 34 6l24 -64q-33 -18 -73 -18z" />
    <glyph glyph-name="m" unicode="m" horiz-adv-x="857" 
d="M624 539q65 0 104 -43.5t39 -117.5v-378h-92v365q0 102 -74 102q-39 0 -66 -22.5t-58 -70.5v-374h-92v365q0 102 -74 102q-40 0 -67 -23t-57 -70v-374h-92v527h79l8 -77q59 89 152 89q49 0 83.5 -25t49.5 -70q63 95 157 95z" />
    <glyph glyph-name="n" unicode="n" horiz-adv-x="586" 
d="M343 539q72 0 112.5 -43t40.5 -118v-378h-92v365q0 56 -21 79t-62 23q-76 0 -134 -93v-374h-92v527h79l8 -78q60 90 161 90z" />
    <glyph glyph-name="o" unicode="o" horiz-adv-x="584" 
d="M293 539q111 0 172.5 -74t61.5 -201q0 -124 -62.5 -200t-172.5 -76q-111 0 -173 74t-62 201q0 125 62.5 200.5t173.5 75.5zM293 465q-137 0 -137 -202q0 -201 136 -201t136 202q0 201 -135 201z" />
    <glyph glyph-name="p" unicode="p" horiz-adv-x="594" 
d="M337 539q195 0 195 -275q0 -124 -54 -200t-153 -76q-88 0 -138 60v-250l-92 -11v740h79l7 -71q60 83 156 83zM303 63q130 0 130 201q0 202 -119 202q-72 0 -127 -82v-257q42 -64 116 -64z" />
    <glyph glyph-name="q" unicode="q" horiz-adv-x="598" 
d="M424 527h79v-740l-92 11v272q-55 -82 -150 -82q-94 0 -146.5 74t-52.5 199q0 123 56 200.5t151 77.5q84 0 148 -71zM281 61q42 0 72 19.5t58 58.5v258q-54 69 -122 69q-61 0 -94.5 -51t-33.5 -152q0 -202 120 -202z" />
    <glyph glyph-name="r" unicode="r" horiz-adv-x="386" 
d="M324 539q28 0 52 -6l-17 -90q-24 6 -46 6q-49 0 -79 -36t-47 -112v-301h-92v527h79l9 -107q42 119 141 119z" />
    <glyph glyph-name="s" unicode="s" horiz-adv-x="467" 
d="M238 539q100 0 179 -60l-39 -58q-70 45 -137 45q-45 0 -71 -18.5t-26 -50.5t24.5 -50t88.5 -35q88 -22 131.5 -60t43.5 -104q0 -78 -60.5 -119t-147.5 -41q-120 0 -199 69l49 56q67 -51 148 -51q52 0 82.5 21.5t30.5 58.5q0 39 -25.5 59t-102.5 40q-84 22 -121.5 59
t-37.5 94q0 63 54 104t136 41z" />
    <glyph glyph-name="t" unicode="t" horiz-adv-x="361" 
d="M326 85l35 -61q-53 -36 -118 -36q-67 0 -104.5 38.5t-37.5 111.5v318h-92v71h92v119l92 11v-130h125l-10 -71h-115v-314q0 -41 14.5 -59.5t48.5 -18.5q31 0 70 21z" />
    <glyph glyph-name="u" unicode="u" horiz-adv-x="582" 
d="M487 527v-527h-79l-7 82q-59 -94 -164 -94q-69 0 -108 42t-39 119v378h92v-368q0 -54 19 -76.5t62 -22.5q77 0 132 91v376h92z" />
    <glyph glyph-name="v" unicode="v" horiz-adv-x="492" 
d="M482 527l-179 -527h-111l-182 527h100l138 -445l137 445h97z" />
    <glyph glyph-name="w" unicode="w" horiz-adv-x="717" 
d="M697 527l-120 -527h-125l-92 444l-95 -444h-122l-123 527h92l95 -463l104 463h103l99 -463l96 463h88z" />
    <glyph glyph-name="x" unicode="x" horiz-adv-x="485" 
d="M297 282l183 -282h-111l-129 223l-131 -223h-104l184 278l-163 249h108l110 -193l111 193h104z" />
    <glyph glyph-name="y" unicode="y" horiz-adv-x="492" 
d="M482 527l-176 -530q-31 -92 -86.5 -145.5t-158.5 -64.5l-10 72q76 13 109.5 43.5t57.5 97.5h-31l-177 527h98l141 -460l138 460h95z" />
    <glyph glyph-name="z" unicode="z" horiz-adv-x="437" 
d="M404 527v-70l-275 -380h278l-11 -77h-371v69l274 380h-251v78h356z" />
    <glyph glyph-name="braceleft" unicode="{" horiz-adv-x="322" 
d="M277 836v-71q-51 0 -73 -15.5t-22 -52.5v-239q0 -51 -18 -73.5t-57 -35.5q40 -14 57.5 -35t17.5 -72v-239q0 -37 22 -52.5t73 -15.5v-71q-100 0 -141 34.5t-41 114.5v222q0 42 -15.5 59t-54.5 17v76q39 0 54.5 18t15.5 60v222q0 80 41 114.5t141 34.5z" />
    <glyph glyph-name="bar" unicode="|" horiz-adv-x="403" 
d="M243 807v-909h-83v909h83z" />
    <glyph glyph-name="braceright" unicode="}" horiz-adv-x="322" 
d="M45 836q100 0 141 -34.5t41 -114.5v-222q0 -42 15.5 -60t54.5 -18v-76q-39 0 -54.5 -17t-15.5 -59v-222q0 -80 -41 -114.5t-141 -34.5v71q51 0 73 15.5t22 52.5v239q0 51 17.5 72t57.5 35q-39 13 -57 35.5t-18 73.5v239q0 37 -22 52.5t-73 15.5v71z" />
    <glyph glyph-name="asciitilde" unicode="~" horiz-adv-x="488" 
d="M319 250q-43 0 -91 31t-65 31q-39 0 -72 -54l-56 29q50 97 137 97q41 0 89 -30.5t67 -30.5q40 0 70 48l55 -30q-47 -91 -134 -91z" />
    <glyph glyph-name="uni00A0" unicode="&#xa0;" horiz-adv-x="265" 
 />
    <glyph glyph-name="exclamdown" unicode="&#xa1;" horiz-adv-x="241" 
d="M121 495q29 0 49 -20.5t20 -49.5t-20 -49t-49 -20q-30 0 -50 20t-20 49t20 49.5t50 20.5zM162 247l11 -449h-102l10 449h81z" />
    <glyph glyph-name="cent" unicode="&#xa2;" horiz-adv-x="478" 
d="M406 106l42 -60q-56 -45 -119 -55v-145h-80v145q-90 12 -141 82.5t-51 185.5t51.5 189.5t141.5 87.5v148h79v-148q65 -9 119 -54l-44 -58q-54 39 -113 39q-64 0 -99.5 -51t-35.5 -151q0 -195 135 -195q53 0 115 40z" />
    <glyph glyph-name="sterling" unicode="&#xa3;" horiz-adv-x="520" 
d="M213 204q0 -51 -13 -79t-48 -48h320l-11 -77h-421v73q51 19 66.5 44.5t15.5 87.5v117h-66v60h66v111q0 83 50 134.5t139 51.5q109 0 179 -83l-60 -46q-47 54 -115 54q-49 0 -75.5 -28.5t-26.5 -81.5v-112h208v-60h-208v-118z" />
    <glyph glyph-name="currency" unicode="&#xa4;" 
d="M492 341q0 -69 -37 -123l76 -75l-55 -55l-78 76q-53 -32 -120 -32q-66 0 -118 35l-78 -79l-53 55l78 78q-36 53 -36 120q0 65 35 119l-77 80l55 55l78 -80q49 34 116 34q69 0 121 -33l79 79l53 -55l-76 -77q37 -52 37 -122zM281 205q60 0 91.5 36t31.5 101t-31.5 101
t-91.5 36q-59 0 -90.5 -36.5t-31.5 -100.5q0 -65 31.5 -101t90.5 -36z" />
    <glyph glyph-name="yen" unicode="&#xa5;" horiz-adv-x="536" 
d="M531 669l-191 -323h113v-62h-138v-90h138v-61h-138v-133h-94v133h-139v61h139v90h-139v62h114l-191 323h102l164 -295l163 295h97z" />
    <glyph glyph-name="brokenbar" unicode="&#xa6;" horiz-adv-x="403" 
d="M243 807v-364h-83v364h83zM243 262v-364h-83v364h83z" />
    <glyph glyph-name="section" unicode="&#xa7;" horiz-adv-x="533" 
d="M387 173q54 -38 54 -98q0 -67 -54 -106.5t-141 -39.5q-97 0 -168 50l35 61q58 -39 136 -39q44 0 72 17t28 48q0 35 -23.5 53.5t-100.5 43.5q-83 27 -119 59t-36 89q0 74 77 121q-53 36 -53 101q0 67 52 105.5t135 38.5q97 0 171 -54l-35 -58q-64 41 -137 41
q-45 0 -70 -17.5t-25 -48.5q0 -35 24 -55t98 -45q83 -28 119.5 -61t36.5 -86q0 -69 -76 -120zM159 323q0 -36 19.5 -54t75.5 -36q43 -14 79 -30q42 39 42 77q0 35 -21.5 54t-86.5 42q-35 13 -67 27q-41 -39 -41 -80z" />
    <glyph glyph-name="dieresis" unicode="&#xa8;" horiz-adv-x="385" 
d="M88 768q24 0 40.5 -16.5t16.5 -40.5t-16.5 -40.5t-40.5 -16.5q-25 0 -41.5 16.5t-16.5 40.5t16.5 40.5t41.5 16.5zM297 768q25 0 41.5 -16.5t16.5 -40.5t-16.5 -40.5t-41.5 -16.5q-24 0 -40.5 16.5t-16.5 40.5t16.5 40.5t40.5 16.5z" />
    <glyph glyph-name="copyright" unicode="&#xa9;" horiz-adv-x="810" 
d="M406 748q131 0 221.5 -89t90.5 -225t-90.5 -224.5t-221.5 -88.5q-132 0 -223 88.5t-91 224.5t91 225t223 89zM406 696q-110 0 -181.5 -73.5t-71.5 -188.5t71.5 -187.5t181.5 -72.5q109 0 180.5 72.5t71.5 187.5t-71.5 188.5t-180.5 73.5zM408 625q64 0 117 -40l-35 -47
q-37 27 -78 27t-66 -32t-25 -98q0 -63 24.5 -95t66.5 -32q43 0 84 31l32 -48q-52 -46 -119 -46q-74 0 -119 50t-45 140q0 89 47 139.5t116 50.5z" />
    <glyph glyph-name="ordfeminine" unicode="&#xaa;" horiz-adv-x="500" 
d="M255 525h58v24q0 39 -20 55t-63 16q-48 0 -113 -21l-22 62q78 28 150 28q157 0 157 -135v-170q0 -40 33 -51l-19 -61q-69 8 -89 59q-41 -60 -126 -60q-63 0 -99.5 33.5t-36.5 88.5q0 64 49.5 98t140.5 34zM224 337q56 0 89 53v80h-48q-106 0 -106 -72q0 -61 65 -61z
M71 77h376v-77h-376v77z" />
    <glyph glyph-name="guillemotleft" unicode="&#xab;" horiz-adv-x="575" 
d="M230 535l55 -38l-135 -210l135 -210l-55 -38l-175 216v63zM465 535l55 -38l-135 -210l135 -210l-55 -38l-175 216v63z" />
    <glyph glyph-name="logicalnot" unicode="&#xac;" horiz-adv-x="500" 
d="M438 361v-220h-83v143h-293v77h376z" />
    <glyph glyph-name="uni00AD" unicode="&#xad;" horiz-adv-x="403" 
d="M60 274v78h283v-78h-283z" />
    <glyph glyph-name="registered" unicode="&#xae;" horiz-adv-x="641" 
d="M319 750q108 0 181.5 -75t73.5 -182t-73.5 -181t-181.5 -74q-106 0 -179 74t-73 181t73.5 182t178.5 75zM319 287q88 0 144 58t56 148t-56 149t-144 59q-85 0 -141 -59t-56 -149t55.5 -148t141.5 -58zM428 551q0 -58 -65 -77l74 -115h-67l-61 106h-24v-106h-57v276h78
q122 0 122 -84zM285 591v-82h30q54 0 54 42q0 40 -56 40h-28z" />
    <glyph glyph-name="macron" unicode="&#xaf;" horiz-adv-x="333" 
d="M303 667h-273v69h273v-69z" />
    <glyph glyph-name="degree" unicode="&#xb0;" horiz-adv-x="523" 
d="M219 381q-66 0 -115 43t-49 117t49 117t115 43q67 0 115.5 -43.5t48.5 -117.5t-48.5 -116.5t-115.5 -42.5zM219 443q37 0 62 25t25 72t-25 72.5t-62 25.5t-62 -25t-25 -72t25 -72.5t62 -25.5z" />
    <glyph glyph-name="plusminus" unicode="&#xb1;" horiz-adv-x="500" 
d="M292 542v-150h146v-76h-146v-149h-84v149h-145v76h145v150h84zM62 0v77h376v-77h-376z" />
    <glyph glyph-name="uni00B2" unicode="&#xb2;" horiz-adv-x="400" 
d="M195 746q64 0 101.5 -34t37.5 -86q0 -49 -37 -97.5t-142 -144.5h189l-8 -62h-269v58q119 115 153 157.5t34 82.5q0 30 -18 47t-47 17q-47 0 -85 -44l-49 38q55 68 140 68z" />
    <glyph glyph-name="uni00B3" unicode="&#xb3;" horiz-adv-x="400" 
d="M197 746q64 0 100.5 -30t36.5 -75q0 -76 -86 -98q44 -4 72 -30t28 -72q0 -55 -42.5 -91.5t-114.5 -36.5q-87 0 -139 60l45 42q38 -41 90 -41q37 0 58.5 19t21.5 52q0 67 -80 67h-34l9 56h23q32 0 52 16.5t20 46.5q0 26 -18 41t-48 15q-47 0 -88 -37l-40 44q58 52 134 52z
" />
    <glyph glyph-name="acute" unicode="&#xb4;" horiz-adv-x="300" 
d="M229 801l41 -77l-212 -86l-28 49z" />
    <glyph glyph-name="uni00B5" unicode="&#xb5;" horiz-adv-x="588" 
d="M487 180q0 -100 26 -180l-86 -12q-17 38 -24 97v1q-57 -98 -138 -98q-65 0 -96 50q17 -52 17 -134v-106l-91 -11v740h92v-371q0 -89 79 -89q80 0 129 96v364h92v-347z" />
    <glyph glyph-name="paragraph" unicode="&#xb6;" horiz-adv-x="734" 
d="M336 689h258v-891l-83 -13v831h-114v-818l-83 -13v497q-113 6 -168.5 61t-55.5 143q0 97 66 150t180 53z" />
    <glyph glyph-name="periodcentered" unicode="&#xb7;" horiz-adv-x="240" 
d="M119 380q30 0 50 -20t20 -49t-20 -49.5t-50 -20.5q-29 0 -49 20.5t-20 49.5t20 49t49 20z" />
    <glyph glyph-name="cedilla" unicode="&#xb8;" horiz-adv-x="275" 
d="M152 16v-72q48 -4 70.5 -27.5t22.5 -57.5q0 -48 -35 -74t-89 -26q-59 0 -91 24l25 52q30 -16 63 -16q50 0 50 40q0 42 -89 42l14 115h59z" />
    <glyph glyph-name="uni00B9" unicode="&#xb9;" horiz-adv-x="400" 
d="M274 739v-417h-77v338l-98 -57l-34 53l140 83h69z" />
    <glyph glyph-name="ordmasculine" unicode="&#xba;" horiz-adv-x="500" 
d="M251 689q92 0 142.5 -55.5t50.5 -153.5q0 -95 -51.5 -152t-142.5 -57q-92 0 -143 56t-51 153q0 95 52 152t143 57zM251 620q-100 0 -100 -140t99 -140t99 140t-98 140zM62 0v77h376v-77h-376z" />
    <glyph glyph-name="guillemotright" unicode="&#xbb;" horiz-adv-x="566" 
d="M110 535l175 -217v-63l-175 -216l-55 38l135 210l-135 210zM336 535l175 -217v-63l-175 -216l-55 38l135 210l-135 210z" />
    <glyph glyph-name="onequarter" unicode="&#xbc;" horiz-adv-x="932" 
d="M640 750l59 -29l-406 -799l-60 29zM274 272h-77v338l-98 -57l-34 53l140 83h69v-417zM889 156v-60h-53v-96h-76v96h-186v54l128 274l66 -25l-113 -243h106l7 105h68v-105h53z" />
    <glyph glyph-name="onehalf" unicode="&#xbd;" horiz-adv-x="932" 
d="M640 750l59 -29l-406 -799l-60 29zM274 689v-417h-77v338l-98 -57l-34 53l140 83h69zM727 424q64 0 101.5 -34t37.5 -86q0 -49 -37 -97.5t-142 -144.5h189l-8 -62h-269v58q119 115 153 157.5t34 82.5q0 30 -18 47t-47 17q-47 0 -85 -44l-49 38q55 68 140 68z" />
    <glyph glyph-name="threequarters" unicode="&#xbe;" horiz-adv-x="932" 
d="M640 750l59 -29l-406 -799l-60 29zM348 391q0 -55 -42.5 -91.5t-114.5 -36.5q-87 0 -139 60l45 42q38 -41 90 -41q37 0 58.5 19t21.5 52q0 67 -80 67h-34l9 56h23q32 0 52 16.5t20 46.5q0 26 -18 41t-48 15q-47 0 -88 -37l-40 44q58 52 134 52q64 0 100.5 -30t36.5 -75
q0 -76 -86 -98q44 -4 72 -30t28 -72zM889 156v-60h-53v-96h-76v96h-186v54l128 274l66 -25l-113 -243h106l7 105h68v-105h53z" />
    <glyph glyph-name="questiondown" unicode="&#xbf;" horiz-adv-x="459" 
d="M254 356q-30 0 -50 20t-20 49t20 49.5t50 20.5q29 0 49 -20.5t20 -49.5t-20 -49t-49 -20zM221 -215q-90 0 -140.5 46t-50.5 110q0 37 13.5 66t33.5 45.5t43.5 33.5l43.5 31t33.5 37t13.5 52v41h91v-46q0 -45 -18 -78t-44 -51.5t-52 -34.5t-44 -38.5t-18 -51.5
q0 -41 27 -63.5t74 -22.5q80 0 139 72l63 -49q-84 -99 -208 -99z" />
    <glyph glyph-name="Agrave" unicode="&#xc0;" horiz-adv-x="573" 
d="M397 804l-24 -49l-216 79l39 77zM467 0l-52 173h-261l-52 -173h-96l221 689h120l220 -689h-100zM177 250h215l-107 360z" />
    <glyph glyph-name="Aacute" unicode="&#xc1;" horiz-adv-x="573" 
d="M407 834l-216 -79l-24 49l200 107zM467 0l-52 173h-261l-52 -173h-96l221 689h120l220 -689h-100zM177 250h215l-107 360z" />
    <glyph glyph-name="Acircumflex" unicode="&#xc2;" horiz-adv-x="573" 
d="M286 840l-126 -81l-40 45l136 110h61l135 -110l-39 -45zM467 0l-52 173h-261l-52 -173h-96l221 689h120l220 -689h-100zM177 250h215l-107 360z" />
    <glyph glyph-name="Atilde" unicode="&#xc3;" horiz-adv-x="573" 
d="M229 830q-28 0 -53 -46l-56 28q41 88 109 88q30 0 65 -24t51 -24q27 0 53 44l56 -28q-39 -86 -109 -86q-29 0 -64.5 24t-51.5 24zM467 0l-52 173h-261l-52 -173h-96l221 689h120l220 -689h-100zM177 250h215l-107 360z" />
    <glyph glyph-name="Adieresis" unicode="&#xc4;" horiz-adv-x="573" 
d="M182 780q-25 0 -41.5 16.5t-16.5 40.5t16.5 40.5t41.5 16.5q24 0 40.5 -16.5t16.5 -40.5t-16.5 -40.5t-40.5 -16.5zM391 780q-24 0 -40.5 16.5t-16.5 40.5t16.5 40.5t40.5 16.5q25 0 41.5 -16.5t16.5 -40.5t-16.5 -40.5t-41.5 -16.5zM467 0l-52 173h-261l-52 -173h-96
l221 689h120l220 -689h-100zM177 250h215l-107 360z" />
    <glyph glyph-name="Aring" unicode="&#xc5;" horiz-adv-x="573" 
d="M287 750q-50 0 -82 30.5t-32 75.5t32 75.5t82 30.5t82 -30.5t32 -75.5t-32 -75.5t-82 -30.5zM287 912q-25 0 -39 -15t-14 -41t14 -41t39 -15q24 0 38.5 15t14.5 41t-14 41t-39 15zM467 0l-52 173h-261l-52 -173h-96l221 689h120l220 -689h-100zM177 250h215l-107 360z
" />
    <glyph glyph-name="AE" unicode="&#xc6;" horiz-adv-x="816" 
d="M535 76h227v-76h-304l-40 173h-268l-65 -173h-97l274 689h459l-11 -76h-309l56 -226h255v-76h-236zM179 250h221l-84 363z" />
    <glyph glyph-name="Ccedilla" unicode="&#xc7;" 
d="M540 65q-64 -66 -164 -75v-46q48 -4 70.5 -27.5t22.5 -57.5q0 -48 -35 -74t-89 -26q-59 0 -91 24l25 52q30 -16 63 -16q50 0 50 40q0 42 -89 42l11 88q-117 11 -188 104t-71 252q0 168 81.5 262t204.5 94q62 0 104.5 -16t86.5 -52l-52 -61q-63 51 -133 51
q-86 0 -138.5 -66t-52.5 -212q0 -142 52 -209.5t138 -67.5q70 0 147 57z" />
    <glyph glyph-name="Egrave" unicode="&#xc8;" horiz-adv-x="535" 
d="M199 911l201 -107l-24 -49l-216 79zM473 689l-11 -76h-267v-225h232v-76h-232v-236h286v-76h-381v689h373z" />
    <glyph glyph-name="Eacute" unicode="&#xc9;" horiz-adv-x="535" 
d="M370 911l40 -77l-216 -79l-24 49zM473 689l-11 -76h-267v-225h232v-76h-232v-236h286v-76h-381v689h373z" />
    <glyph glyph-name="Ecircumflex" unicode="&#xca;" horiz-adv-x="535" 
d="M163 759l-40 45l136 110h61l135 -110l-39 -45l-127 81zM473 689l-11 -76h-267v-225h232v-76h-232v-236h286v-76h-381v689h373z" />
    <glyph glyph-name="Edieresis" unicode="&#xcb;" horiz-adv-x="535" 
d="M185 894q24 0 40.5 -16.5t16.5 -40.5t-16.5 -40.5t-40.5 -16.5q-25 0 -41.5 16.5t-16.5 40.5t16.5 40.5t41.5 16.5zM394 894q25 0 41.5 -16.5t16.5 -40.5t-16.5 -40.5t-41.5 -16.5q-24 0 -40.5 16.5t-16.5 40.5t16.5 40.5t40.5 16.5zM473 689l-11 -76h-267v-225h232v-76
h-232v-236h286v-76h-381v689h373z" />
    <glyph glyph-name="Igrave" unicode="&#xcc;" horiz-adv-x="295" 
d="M56 911l201 -107l-24 -49l-216 79zM195 689v-689h-95v689h95z" />
    <glyph glyph-name="Iacute" unicode="&#xcd;" horiz-adv-x="295" 
d="M227 911l40 -77l-216 -79l-24 49zM195 689v-689h-95v689h95z" />
    <glyph glyph-name="Icircumflex" unicode="&#xce;" horiz-adv-x="295" 
d="M20 759l-40 45l136 110h61l135 -110l-39 -45l-127 81zM195 689v-689h-95v689h95z" />
    <glyph glyph-name="Idieresis" unicode="&#xcf;" horiz-adv-x="295" 
d="M42 894q24 0 40.5 -16.5t16.5 -40.5t-16.5 -40.5t-40.5 -16.5q-25 0 -41.5 16.5t-16.5 40.5t16.5 40.5t41.5 16.5zM251 894q25 0 41.5 -16.5t16.5 -40.5t-16.5 -40.5t-41.5 -16.5q-24 0 -40.5 16.5t-16.5 40.5t16.5 40.5t40.5 16.5zM195 689v-689h-95v689h95z" />
    <glyph glyph-name="Eth" unicode="&#xd0;" horiz-adv-x="656" 
d="M256 689q57 0 103.5 -7.5t93 -30t78 -59.5t51 -99t19.5 -145q0 -81 -19.5 -143.5t-51 -100.5t-75.5 -62t-87 -33t-91 -9h-165v318h-92v70h92v301h144zM284 75q35 0 64 6.5t58.5 24.5t49 47.5t32 79t12.5 115.5q0 67 -13 116.5t-33.5 77.5t-51 44.5t-59.5 21.5t-66 5h-70
v-225h157v-70h-157v-243h77z" />
    <glyph glyph-name="Ntilde" unicode="&#xd1;" horiz-adv-x="683" 
d="M411 782q-29 0 -64.5 24t-51.5 24q-28 0 -53 -46l-56 28q41 88 109 88q30 0 65 -24t51 -24q27 0 53 44l56 -28q-39 -86 -109 -86zM583 689v-689h-127l-280 585q13 -148 13 -269v-316h-89v689h124l283 -586q-13 104 -13 210v376h89z" />
    <glyph glyph-name="Ograve" unicode="&#xd2;" horiz-adv-x="692" 
d="M255 911l201 -107l-24 -49l-216 79zM346 701q133 0 212 -93.5t79 -263.5q0 -168 -79.5 -262t-211.5 -94t-211.5 93t-79.5 262q0 168 80 263t211 95zM346 623q-190 0 -190 -280q0 -143 50.5 -210t139.5 -67q190 0 190 278q0 279 -190 279z" />
    <glyph glyph-name="Oacute" unicode="&#xd3;" horiz-adv-x="692" 
d="M426 911l40 -77l-216 -79l-24 49zM346 701q133 0 212 -93.5t79 -263.5q0 -168 -79.5 -262t-211.5 -94t-211.5 93t-79.5 262q0 168 80 263t211 95zM346 623q-190 0 -190 -280q0 -143 50.5 -210t139.5 -67q190 0 190 278q0 279 -190 279z" />
    <glyph glyph-name="Ocircumflex" unicode="&#xd4;" horiz-adv-x="692" 
d="M219 759l-40 45l136 110h61l135 -110l-39 -45l-127 81zM346 701q133 0 212 -93.5t79 -263.5q0 -168 -79.5 -262t-211.5 -94t-211.5 93t-79.5 262q0 168 80 263t211 95zM346 623q-190 0 -190 -280q0 -143 50.5 -210t139.5 -67q190 0 190 278q0 279 -190 279z" />
    <glyph glyph-name="Otilde" unicode="&#xd5;" horiz-adv-x="692" 
d="M404 782q-29 0 -64.5 24t-51.5 24q-28 0 -53 -46l-56 28q41 88 109 88q30 0 65 -24t51 -24q27 0 53 44l56 -28q-39 -86 -109 -86zM346 701q133 0 212 -93.5t79 -263.5q0 -168 -79.5 -262t-211.5 -94t-211.5 93t-79.5 262q0 168 80 263t211 95zM346 623q-190 0 -190 -280
q0 -143 50.5 -210t139.5 -67q190 0 190 278q0 279 -190 279z" />
    <glyph glyph-name="Odieresis" unicode="&#xd6;" horiz-adv-x="692" 
d="M241 894q24 0 40.5 -16.5t16.5 -40.5t-16.5 -40.5t-40.5 -16.5q-25 0 -41.5 16.5t-16.5 40.5t16.5 40.5t41.5 16.5zM450 894q25 0 41.5 -16.5t16.5 -40.5t-16.5 -40.5t-41.5 -16.5q-24 0 -40.5 16.5t-16.5 40.5t16.5 40.5t40.5 16.5zM346 701q133 0 212 -93.5t79 -263.5
q0 -168 -79.5 -262t-211.5 -94t-211.5 93t-79.5 262q0 168 80 263t211 95zM346 623q-190 0 -190 -280q0 -143 50.5 -210t139.5 -67q190 0 190 278q0 279 -190 279z" />
    <glyph glyph-name="multiply" unicode="&#xd7;" horiz-adv-x="500" 
d="M372 486l56 -57l-120 -120l120 -124l-56 -56l-120 124l-124 -124l-56 56l120 120l-120 124l56 57l120 -125z" />
    <glyph glyph-name="Oslash" unicode="&#xd8;" horiz-adv-x="692" 
d="M486 667q72 -39 111.5 -121.5t39.5 -201.5q0 -168 -79.5 -262t-211.5 -94q-36 0 -67 7l-35 -122l-79 21l40 128q-71 40 -110.5 121.5t-39.5 199.5q0 168 80 263t211 95q37 0 66 -7l37 125l79 -21zM346 623q-190 0 -190 -280q0 -185 82 -246l158 521q-27 5 -50 5zM346 66
q190 0 190 278q0 191 -84 250l-156 -523q25 -5 50 -5z" />
    <glyph glyph-name="Ugrave" unicode="&#xd9;" horiz-adv-x="662" 
d="M240 911l201 -107l-24 -49l-216 79zM572 689v-468q0 -105 -64 -169t-178 -64q-115 0 -177.5 63.5t-62.5 169.5v468h95v-461q0 -160 145 -160q146 0 146 160v461h96z" />
    <glyph glyph-name="Uacute" unicode="&#xda;" horiz-adv-x="662" 
d="M411 911l40 -77l-216 -79l-24 49zM572 689v-468q0 -105 -64 -169t-178 -64q-115 0 -177.5 63.5t-62.5 169.5v468h95v-461q0 -160 145 -160q146 0 146 160v461h96z" />
    <glyph glyph-name="Ucircumflex" unicode="&#xdb;" horiz-adv-x="662" 
d="M204 759l-40 45l136 110h61l135 -110l-39 -45l-127 81zM572 689v-468q0 -105 -64 -169t-178 -64q-115 0 -177.5 63.5t-62.5 169.5v468h95v-461q0 -160 145 -160q146 0 146 160v461h96z" />
    <glyph glyph-name="Udieresis" unicode="&#xdc;" horiz-adv-x="662" 
d="M226 894q24 0 40.5 -16.5t16.5 -40.5t-16.5 -40.5t-40.5 -16.5q-25 0 -41.5 16.5t-16.5 40.5t16.5 40.5t41.5 16.5zM435 894q25 0 41.5 -16.5t16.5 -40.5t-16.5 -40.5t-41.5 -16.5q-24 0 -40.5 16.5t-16.5 40.5t16.5 40.5t40.5 16.5zM572 689v-468q0 -105 -64 -169
t-178 -64q-115 0 -177.5 63.5t-62.5 169.5v468h95v-461q0 -160 145 -160q146 0 146 160v461h96z" />
    <glyph glyph-name="Yacute" unicode="&#xdd;" horiz-adv-x="550" 
d="M355 911l40 -77l-216 -79l-24 49zM545 689l-222 -424v-265h-96v264l-222 425h105l168 -341l168 341h99z" />
    <glyph glyph-name="Thorn" unicode="&#xde;" horiz-adv-x="581" 
d="M281 571q128 0 198 -54t70 -163q0 -116 -73 -171.5t-194 -55.5h-87v-127h-95v689h95v-118h86zM278 202q84 0 127 33t43 118q0 144 -168 144h-85v-295h83z" />
    <glyph glyph-name="germandbls" unicode="&#xdf;" horiz-adv-x="593" 
d="M296 750q82 0 131 -40.5t49 -102.5q0 -30 -11.5 -53.5t-28 -38.5t-32.5 -27.5t-27.5 -28t-11.5 -32.5q0 -23 19.5 -42.5t47 -37.5t55 -40t47 -59.5t19.5 -85.5q0 -78 -52.5 -126t-125.5 -48q-59 0 -102 23l27 64q26 -13 66 -13q42 0 67.5 26t25.5 75q0 36 -18.5 65
t-45.5 48l-53.5 38t-45 45.5t-18.5 60.5q0 26 11.5 46.5t27.5 34l32 26.5t27.5 32t11.5 43q0 37 -26.5 56.5t-66.5 19.5q-108 0 -108 -139v-539h-92v539q0 100 52.5 155.5t148.5 55.5z" />
    <glyph glyph-name="agrave" unicode="&#xe0;" horiz-adv-x="544" 
d="M391 687l-28 -49l-212 86l41 77zM450 123q0 -32 11 -47.5t33 -23.5l-21 -64q-82 9 -103 79q-53 -79 -157 -79q-78 0 -123 44t-45 115q0 84 60.5 129t171.5 45h81v39q0 56 -27 80t-83 24q-58 0 -142 -28l-23 67q97 36 182 36q185 0 185 -175v-241zM234 57q79 0 124 82v121
h-69q-146 0 -146 -108q0 -95 91 -95z" />
    <glyph glyph-name="aacute" unicode="&#xe1;" horiz-adv-x="544" 
d="M381 724l-212 -86l-28 49l199 114zM450 123q0 -32 11 -47.5t33 -23.5l-21 -64q-82 9 -103 79q-53 -79 -157 -79q-78 0 -123 44t-45 115q0 84 60.5 129t171.5 45h81v39q0 56 -27 80t-83 24q-58 0 -142 -28l-23 67q97 36 182 36q185 0 185 -175v-241zM234 57q79 0 124 82
v121h-69q-146 0 -146 -108q0 -95 91 -95z" />
    <glyph glyph-name="acircumflex" unicode="&#xe2;" horiz-adv-x="544" 
d="M261 718l-127 -84l-39 45l135 113h61l136 -113l-40 -45zM450 123q0 -32 11 -47.5t33 -23.5l-21 -64q-82 9 -103 79q-53 -79 -157 -79q-78 0 -123 44t-45 115q0 84 60.5 129t171.5 45h81v39q0 56 -27 80t-83 24q-58 0 -142 -28l-23 67q97 36 182 36q185 0 185 -175v-241z
M234 57q79 0 124 82v121h-69q-146 0 -146 -108q0 -95 91 -95z" />
    <glyph glyph-name="atilde" unicode="&#xe3;" horiz-adv-x="544" 
d="M203 704q-28 0 -53 -46l-56 28q41 88 109 88q30 0 65 -24t51 -24q27 0 53 44l56 -28q-39 -86 -109 -86q-29 0 -64.5 24t-51.5 24zM450 123q0 -32 11 -47.5t33 -23.5l-21 -64q-82 9 -103 79q-53 -79 -157 -79q-78 0 -123 44t-45 115q0 84 60.5 129t171.5 45h81v39
q0 56 -27 80t-83 24q-58 0 -142 -28l-23 67q97 36 182 36q185 0 185 -175v-241zM234 57q79 0 124 82v121h-69q-146 0 -146 -108q0 -95 91 -95z" />
    <glyph glyph-name="adieresis" unicode="&#xe4;" horiz-adv-x="544" 
d="M156 654q-25 0 -41.5 16.5t-16.5 40.5t16.5 40.5t41.5 16.5q24 0 40.5 -16.5t16.5 -40.5t-16.5 -40.5t-40.5 -16.5zM365 654q-24 0 -40.5 16.5t-16.5 40.5t16.5 40.5t40.5 16.5q25 0 41.5 -16.5t16.5 -40.5t-16.5 -40.5t-41.5 -16.5zM450 123q0 -32 11 -47.5t33 -23.5
l-21 -64q-82 9 -103 79q-53 -79 -157 -79q-78 0 -123 44t-45 115q0 84 60.5 129t171.5 45h81v39q0 56 -27 80t-83 24q-58 0 -142 -28l-23 67q97 36 182 36q185 0 185 -175v-241zM234 57q79 0 124 82v121h-69q-146 0 -146 -108q0 -95 91 -95z" />
    <glyph glyph-name="aring" unicode="&#xe5;" horiz-adv-x="544" 
d="M261 624q-50 0 -82 30.5t-32 75.5t32 75.5t82 30.5t82 -30.5t32 -75.5t-32 -75.5t-82 -30.5zM261 786q-25 0 -39 -15t-14 -41t14 -41t39 -15q24 0 38.5 15t14.5 41t-14 41t-39 15zM450 123q0 -32 11 -47.5t33 -23.5l-21 -64q-82 9 -103 79q-53 -79 -157 -79
q-78 0 -123 44t-45 115q0 84 60.5 129t171.5 45h81v39q0 56 -27 80t-83 24q-58 0 -142 -28l-23 67q97 36 182 36q185 0 185 -175v-241zM234 57q79 0 124 82v121h-69q-146 0 -146 -108q0 -95 91 -95z" />
    <glyph glyph-name="ae" unicode="&#xe6;" horiz-adv-x="849" 
d="M797 279q0 -23 -2 -47h-336q12 -169 142 -169q71 0 137 46l40 -55q-84 -66 -184 -66q-127 0 -190 97q-36 -52 -81 -74.5t-107 -22.5q-79 0 -125 44t-46 115q0 84 62 129t173 45h81v39q0 56 -27 80t-83 24q-58 0 -142 -28l-23 67q98 36 182 36q114 0 157 -84q57 84 159 84
t157.5 -69t55.5 -191zM706 300v6q0 160 -124 160q-113 0 -123 -166h247zM237 57q81 0 139 92q-15 48 -15 108v3h-69q-146 0 -146 -108q0 -95 91 -95z" />
    <glyph glyph-name="ccedilla" unicode="&#xe7;" horiz-adv-x="478" 
d="M448 46q-63 -51 -140 -57v-45q48 -4 70.5 -27.5t22.5 -57.5q0 -48 -35 -74t-89 -26q-59 0 -91 24l25 52q30 -16 63 -16q50 0 50 40q0 42 -89 42l11 90q-89 14 -139 84t-50 184q0 127 62 203.5t168 76.5q93 0 161 -57l-44 -58q-54 39 -113 39q-64 0 -99.5 -51t-35.5 -151
q0 -195 135 -195q53 0 115 40z" />
    <glyph glyph-name="egrave" unicode="&#xe8;" horiz-adv-x="545" 
d="M409 687l-28 -49l-212 86l41 77zM493 279q0 -23 -2 -47h-336q12 -169 142 -169q71 0 137 46l40 -55q-84 -66 -184 -66q-110 0 -171.5 72t-61.5 198q0 125 59 203t160 78q105 0 161 -69t56 -191zM402 300v6q0 160 -124 160q-113 0 -123 -166h247z" />
    <glyph glyph-name="eacute" unicode="&#xe9;" horiz-adv-x="545" 
d="M399 724l-212 -86l-28 49l199 114zM493 279q0 -23 -2 -47h-336q12 -169 142 -169q71 0 137 46l40 -55q-84 -66 -184 -66q-110 0 -171.5 72t-61.5 198q0 125 59 203t160 78q105 0 161 -69t56 -191zM402 300v6q0 160 -124 160q-113 0 -123 -166h247z" />
    <glyph glyph-name="ecircumflex" unicode="&#xea;" horiz-adv-x="545" 
d="M279 718l-127 -84l-39 45l135 113h61l136 -113l-40 -45zM493 279q0 -23 -2 -47h-336q12 -169 142 -169q71 0 137 46l40 -55q-84 -66 -184 -66q-110 0 -171.5 72t-61.5 198q0 125 59 203t160 78q105 0 161 -69t56 -191zM402 300v6q0 160 -124 160q-113 0 -123 -166h247z
" />
    <glyph glyph-name="edieresis" unicode="&#xeb;" horiz-adv-x="545" 
d="M174 654q-25 0 -41.5 16.5t-16.5 40.5t16.5 40.5t41.5 16.5q24 0 40.5 -16.5t16.5 -40.5t-16.5 -40.5t-40.5 -16.5zM383 654q-24 0 -40.5 16.5t-16.5 40.5t16.5 40.5t40.5 16.5q25 0 41.5 -16.5t16.5 -40.5t-16.5 -40.5t-41.5 -16.5zM493 279q0 -23 -2 -47h-336
q12 -169 142 -169q71 0 137 46l40 -55q-84 -66 -184 -66q-110 0 -171.5 72t-61.5 198q0 125 59 203t160 78q105 0 161 -69t56 -191zM402 300v6q0 160 -124 160q-113 0 -123 -166h247z" />
    <glyph glyph-name="igrave" unicode="&#xec;" horiz-adv-x="282" 
d="M72 801l199 -114l-28 -49l-212 86zM187 527v-527h-92v527h92z" />
    <glyph glyph-name="iacute" unicode="&#xed;" horiz-adv-x="282" 
d="M220 801l41 -77l-212 -86l-28 49zM187 527v-527h-92v527h92z" />
    <glyph glyph-name="icircumflex" unicode="&#xee;" horiz-adv-x="282" 
d="M14 634l-39 45l135 113h61l136 -113l-40 -45l-126 84zM187 527v-527h-92v527h92z" />
    <glyph glyph-name="idieresis" unicode="&#xef;" horiz-adv-x="282" 
d="M36 768q24 0 40.5 -16.5t16.5 -40.5t-16.5 -40.5t-40.5 -16.5q-25 0 -41.5 16.5t-16.5 40.5t16.5 40.5t41.5 16.5zM245 768q25 0 41.5 -16.5t16.5 -40.5t-16.5 -40.5t-41.5 -16.5q-24 0 -40.5 16.5t-16.5 40.5t16.5 40.5t40.5 16.5zM187 527v-527h-92v527h92z" />
    <glyph glyph-name="eth" unicode="&#xf0;" horiz-adv-x="570" 
d="M342 664q90 -68 128 -163.5t38 -235.5q0 -125 -63.5 -201t-166.5 -76q-96 0 -158.5 66t-62.5 181q0 97 52.5 168.5t148.5 71.5q91 0 147 -67q-24 124 -119 199l-72 -70l-63 32l74 75q-52 24 -113 36l20 70q85 -17 149 -48l70 74l54 -47zM277 61q63 0 100.5 53t37.5 152
q0 21 -2 59q-52 78 -141 78q-121 0 -121 -164q0 -86 34 -132t92 -46z" />
    <glyph glyph-name="ntilde" unicode="&#xf1;" horiz-adv-x="586" 
d="M240 704q-28 0 -53 -46l-56 28q41 88 109 88q30 0 65 -24t51 -24q27 0 53 44l56 -28q-39 -86 -109 -86q-29 0 -64.5 24t-51.5 24zM343 539q72 0 112.5 -43t40.5 -118v-378h-92v365q0 56 -21 79t-62 23q-76 0 -134 -93v-374h-92v527h79l8 -78q60 90 161 90z" />
    <glyph glyph-name="ograve" unicode="&#xf2;" horiz-adv-x="584" 
d="M223 801l199 -114l-28 -49l-212 86zM293 539q111 0 172.5 -74t61.5 -201q0 -124 -62.5 -200t-172.5 -76q-111 0 -173 74t-62 201q0 125 62.5 200.5t173.5 75.5zM293 465q-137 0 -137 -202q0 -201 136 -201t136 202q0 201 -135 201z" />
    <glyph glyph-name="oacute" unicode="&#xf3;" horiz-adv-x="584" 
d="M371 801l41 -77l-212 -86l-28 49zM293 539q111 0 172.5 -74t61.5 -201q0 -124 -62.5 -200t-172.5 -76q-111 0 -173 74t-62 201q0 125 62.5 200.5t173.5 75.5zM293 465q-137 0 -137 -202q0 -201 136 -201t136 202q0 201 -135 201z" />
    <glyph glyph-name="ocircumflex" unicode="&#xf4;" horiz-adv-x="584" 
d="M165 634l-39 45l135 113h61l136 -113l-40 -45l-126 84zM293 539q111 0 172.5 -74t61.5 -201q0 -124 -62.5 -200t-172.5 -76q-111 0 -173 74t-62 201q0 125 62.5 200.5t173.5 75.5zM293 465q-137 0 -137 -202q0 -201 136 -201t136 202q0 201 -135 201z" />
    <glyph glyph-name="otilde" unicode="&#xf5;" horiz-adv-x="584" 
d="M350 656q-29 0 -64.5 24t-51.5 24q-28 0 -53 -46l-56 28q41 88 109 88q30 0 65 -24t51 -24q27 0 53 44l56 -28q-39 -86 -109 -86zM293 539q111 0 172.5 -74t61.5 -201q0 -124 -62.5 -200t-172.5 -76q-111 0 -173 74t-62 201q0 125 62.5 200.5t173.5 75.5zM293 465
q-137 0 -137 -202q0 -201 136 -201t136 202q0 201 -135 201z" />
    <glyph glyph-name="odieresis" unicode="&#xf6;" horiz-adv-x="584" 
d="M187 768q24 0 40.5 -16.5t16.5 -40.5t-16.5 -40.5t-40.5 -16.5q-25 0 -41.5 16.5t-16.5 40.5t16.5 40.5t41.5 16.5zM396 768q25 0 41.5 -16.5t16.5 -40.5t-16.5 -40.5t-41.5 -16.5q-24 0 -40.5 16.5t-16.5 40.5t16.5 40.5t40.5 16.5zM293 539q111 0 172.5 -74t61.5 -201
q0 -124 -62.5 -200t-172.5 -76q-111 0 -173 74t-62 201q0 125 62.5 200.5t173.5 75.5zM293 465q-137 0 -137 -202q0 -201 136 -201t136 202q0 201 -135 201z" />
    <glyph glyph-name="divide" unicode="&#xf7;" horiz-adv-x="500" 
d="M250 631q30 0 50 -20t20 -49t-20 -49.5t-50 -20.5q-29 0 -49 20.5t-20 49.5t20 49t49 20zM62 294v77h376v-77h-376zM250 174q30 0 50 -20t20 -49t-20 -49.5t-50 -20.5q-29 0 -49 20.5t-20 49.5t20 49t49 20z" />
    <glyph glyph-name="oslash" unicode="&#xf8;" horiz-adv-x="584" 
d="M416 508q111 -68 111 -244q0 -124 -62.5 -200t-172.5 -76q-24 0 -51 5l-39 -123l-75 22l42 127q-112 68 -112 244q0 125 62.5 200.5t173.5 75.5q24 0 51 -5l39 122l75 -22zM293 465q-137 0 -137 -202q0 -129 48 -174l124 373q-17 3 -35 3zM292 62q136 0 136 202
q0 129 -47 173l-123 -372q15 -3 34 -3z" />
    <glyph glyph-name="ugrave" unicode="&#xf9;" horiz-adv-x="582" 
d="M220 801l199 -114l-28 -49l-212 86zM487 527v-527h-79l-7 82q-59 -94 -164 -94q-69 0 -108 42t-39 119v378h92v-368q0 -54 19 -76.5t62 -22.5q77 0 132 91v376h92z" />
    <glyph glyph-name="uacute" unicode="&#xfa;" horiz-adv-x="582" 
d="M368 801l41 -77l-212 -86l-28 49zM487 527v-527h-79l-7 82q-59 -94 -164 -94q-69 0 -108 42t-39 119v378h92v-368q0 -54 19 -76.5t62 -22.5q77 0 132 91v376h92z" />
    <glyph glyph-name="ucircumflex" unicode="&#xfb;" horiz-adv-x="582" 
d="M162 634l-39 45l135 113h61l136 -113l-40 -45l-126 84zM487 527v-527h-79l-7 82q-59 -94 -164 -94q-69 0 -108 42t-39 119v378h92v-368q0 -54 19 -76.5t62 -22.5q77 0 132 91v376h92z" />
    <glyph glyph-name="udieresis" unicode="&#xfc;" horiz-adv-x="582" 
d="M184 768q24 0 40.5 -16.5t16.5 -40.5t-16.5 -40.5t-40.5 -16.5q-25 0 -41.5 16.5t-16.5 40.5t16.5 40.5t41.5 16.5zM393 768q25 0 41.5 -16.5t16.5 -40.5t-16.5 -40.5t-41.5 -16.5q-24 0 -40.5 16.5t-16.5 40.5t16.5 40.5t40.5 16.5zM487 527v-527h-79l-7 82
q-59 -94 -164 -94q-69 0 -108 42t-39 119v378h92v-368q0 -54 19 -76.5t62 -22.5q77 0 132 91v376h92z" />
    <glyph glyph-name="yacute" unicode="&#xfd;" horiz-adv-x="492" 
d="M325 801l41 -77l-212 -86l-28 49zM482 527l-176 -530q-31 -92 -86.5 -145.5t-158.5 -64.5l-10 72q76 13 109.5 43.5t57.5 97.5h-31l-177 527h98l141 -460l138 460h95z" />
    <glyph glyph-name="thorn" unicode="&#xfe;" horiz-adv-x="594" 
d="M337 539q195 0 195 -275q0 -124 -54 -200t-153 -76q-88 0 -138 60v-246l-92 -15v952l92 11v-287q58 76 150 76zM303 63q130 0 130 201q0 202 -119 202q-72 0 -127 -82v-257q42 -64 116 -64z" />
    <glyph glyph-name="ydieresis" unicode="&#xff;" horiz-adv-x="492" 
d="M141 768q24 0 40.5 -16.5t16.5 -40.5t-16.5 -40.5t-40.5 -16.5q-25 0 -41.5 16.5t-16.5 40.5t16.5 40.5t41.5 16.5zM350 768q25 0 41.5 -16.5t16.5 -40.5t-16.5 -40.5t-41.5 -16.5q-24 0 -40.5 16.5t-16.5 40.5t16.5 40.5t40.5 16.5zM482 527l-176 -530
q-31 -92 -86.5 -145.5t-158.5 -64.5l-10 72q76 13 109.5 43.5t57.5 97.5h-31l-177 527h98l141 -460l138 460h95z" />
    <glyph glyph-name="Amacron" unicode="&#x100;" horiz-adv-x="573" 
d="M423 862v-69h-273v69h273zM467 0l-52 173h-261l-52 -173h-96l221 689h120l220 -689h-100zM177 250h215l-107 360z" />
    <glyph glyph-name="amacron" unicode="&#x101;" horiz-adv-x="544" 
d="M397 736v-69h-273v69h273zM450 123q0 -32 11 -47.5t33 -23.5l-21 -64q-82 9 -103 79q-53 -79 -157 -79q-78 0 -123 44t-45 115q0 84 60.5 129t171.5 45h81v39q0 56 -27 80t-83 24q-58 0 -142 -28l-23 67q97 36 182 36q185 0 185 -175v-241zM234 57q79 0 124 82v121h-69
q-146 0 -146 -108q0 -95 91 -95z" />
    <glyph glyph-name="Abreve" unicode="&#x102;" horiz-adv-x="573" 
d="M285 758q-60 0 -102 34t-48 89l61 13q23 -66 89 -66q69 0 92 66l61 -13q-6 -55 -49 -89t-104 -34zM467 0l-52 173h-261l-52 -173h-96l221 689h120l220 -689h-100zM177 250h215l-107 360z" />
    <glyph glyph-name="abreve" unicode="&#x103;" horiz-adv-x="544" 
d="M259 643q-61 0 -102.5 35.5t-47.5 97.5l61 13q21 -76 89 -76q71 0 92 76l61 -13q-6 -62 -48.5 -97.5t-104.5 -35.5zM450 123q0 -32 11 -47.5t33 -23.5l-21 -64q-82 9 -103 79q-53 -79 -157 -79q-78 0 -123 44t-45 115q0 84 60.5 129t171.5 45h81v39q0 56 -27 80t-83 24
q-58 0 -142 -28l-23 67q97 36 182 36q185 0 185 -175v-241zM234 57q79 0 124 82v121h-69q-146 0 -146 -108q0 -95 91 -95z" />
    <glyph glyph-name="Aogonek" unicode="&#x104;" horiz-adv-x="573" 
d="M527 0q-71 -31 -97 -57.5t-26 -56.5q0 -48 56 -48q27 0 61 7l-9 -70q-35 -7 -63 -7q-57 0 -91 28.5t-34 72.5q0 94 138 147l-47 157h-261l-52 -173h-96l221 689h120l220 -689h-40zM177 250h215l-107 360z" />
    <glyph glyph-name="aogonek" unicode="&#x105;" horiz-adv-x="544" 
d="M473 -12q-71 -31 -97 -57.5t-26 -56.5q0 -48 56 -48q27 0 61 7l-9 -70q-35 -7 -63 -7q-57 0 -91 28.5t-34 72.5q0 96 144 149q-31 19 -44 61q-53 -79 -157 -79q-78 0 -123 44t-45 115q0 84 60.5 129t171.5 45h81v39q0 56 -27 80t-83 24q-58 0 -142 -28l-23 67
q97 36 182 36q185 0 185 -175v-241q0 -32 11 -47.5t33 -23.5zM234 57q79 0 124 82v121h-69q-146 0 -146 -108q0 -95 91 -95z" />
    <glyph glyph-name="Cacute" unicode="&#x106;" 
d="M427 911l40 -77l-216 -79l-24 49zM341 701q62 0 104.5 -16t86.5 -52l-52 -61q-63 51 -133 51q-86 0 -138.5 -66t-52.5 -212q0 -142 52 -209.5t138 -67.5q70 0 147 57l47 -60q-75 -77 -197 -77q-129 0 -208.5 93.5t-79.5 263.5q0 168 81.5 262t204.5 94z" />
    <glyph glyph-name="cacute" unicode="&#x107;" horiz-adv-x="478" 
d="M368 801l41 -77l-212 -86l-28 49zM287 539q93 0 161 -57l-44 -58q-54 39 -113 39q-64 0 -99.5 -51t-35.5 -151q0 -195 135 -195q53 0 115 40l42 -60q-72 -58 -161 -58q-107 0 -168.5 72t-61.5 199t62 203.5t168 76.5z" />
    <glyph glyph-name="Ccircumflex" unicode="&#x108;" 
d="M220 759l-40 45l136 110h61l135 -110l-39 -45l-127 81zM341 701q62 0 104.5 -16t86.5 -52l-52 -61q-63 51 -133 51q-86 0 -138.5 -66t-52.5 -212q0 -142 52 -209.5t138 -67.5q70 0 147 57l47 -60q-75 -77 -197 -77q-129 0 -208.5 93.5t-79.5 263.5q0 168 81.5 262
t204.5 94z" />
    <glyph glyph-name="ccircumflex" unicode="&#x109;" horiz-adv-x="478" 
d="M162 634l-39 45l135 113h61l136 -113l-40 -45l-126 84zM287 539q93 0 161 -57l-44 -58q-54 39 -113 39q-64 0 -99.5 -51t-35.5 -151q0 -195 135 -195q53 0 115 40l42 -60q-72 -58 -161 -58q-107 0 -168.5 72t-61.5 199t62 203.5t168 76.5z" />
    <glyph glyph-name="Cdotaccent" unicode="&#x10a;" 
d="M346 906q29 0 47 -18t18 -45t-18 -44.5t-47 -17.5q-28 0 -46 17.5t-18 44.5t18 45t46 18zM341 701q62 0 104.5 -16t86.5 -52l-52 -61q-63 51 -133 51q-86 0 -138.5 -66t-52.5 -212q0 -142 52 -209.5t138 -67.5q70 0 147 57l47 -60q-75 -77 -197 -77q-129 0 -208.5 93.5
t-79.5 263.5q0 168 81.5 262t204.5 94z" />
    <glyph glyph-name="cdotaccent" unicode="&#x10b;" horiz-adv-x="478" 
d="M288 780q29 0 47 -18t18 -45t-18 -44.5t-47 -17.5q-28 0 -46 17.5t-18 44.5t18 45t46 18zM287 539q93 0 161 -57l-44 -58q-54 39 -113 39q-64 0 -99.5 -51t-35.5 -151q0 -195 135 -195q53 0 115 40l42 -60q-72 -58 -161 -58q-107 0 -168.5 72t-61.5 199t62 203.5
t168 76.5z" />
    <glyph glyph-name="Ccaron" unicode="&#x10c;" 
d="M474 909l39 -45l-135 -110h-61l-136 110l40 45l126 -81zM341 701q62 0 104.5 -16t86.5 -52l-52 -61q-63 51 -133 51q-86 0 -138.5 -66t-52.5 -212q0 -142 52 -209.5t138 -67.5q70 0 147 57l47 -60q-75 -77 -197 -77q-129 0 -208.5 93.5t-79.5 263.5q0 168 81.5 262
t204.5 94z" />
    <glyph glyph-name="ccaron" unicode="&#x10d;" horiz-adv-x="478" 
d="M416 785l39 -45l-135 -113h-61l-136 113l40 45l126 -84zM287 539q93 0 161 -57l-44 -58q-54 39 -113 39q-64 0 -99.5 -51t-35.5 -151q0 -195 135 -195q53 0 115 40l42 -60q-72 -58 -161 -58q-107 0 -168.5 72t-61.5 199t62 203.5t168 76.5z" />
    <glyph glyph-name="Dcaron" unicode="&#x10e;" horiz-adv-x="644" 
d="M430 909l39 -45l-135 -110h-61l-136 110l40 45l126 -81zM244 689q57 0 103.5 -7.5t93 -30t78 -59.5t51 -99t19.5 -145q0 -81 -19.5 -143.5t-51 -100.5t-75.5 -62t-87 -33t-91 -9h-165v689h144zM265 613h-70v-538h77q35 0 64 6.5t58.5 24.5t49 47.5t32 79t12.5 115.5
q0 67 -13 116.5t-33.5 77.5t-51 44.5t-59.5 21.5t-66 5z" />
    <glyph glyph-name="dcaron" unicode="&#x10f;" horiz-adv-x="598" 
d="M411 474v276l92 -11v-739h-81l-9 73q-55 -85 -152 -85q-94 0 -146.5 74t-52.5 199q0 123 56 200.5t151 77.5q81 0 142 -65zM568 749l83 -10l-50 -184l-53 8zM281 61q42 0 72 19.5t58 58.5v258q-54 69 -122 69q-61 0 -94.5 -51t-33.5 -152q0 -202 120 -202z" />
    <glyph glyph-name="Dcroat" unicode="&#x110;" horiz-adv-x="656" 
d="M256 689q57 0 103.5 -7.5t93 -30t78 -59.5t51 -99t19.5 -145q0 -81 -19.5 -143.5t-51 -100.5t-75.5 -62t-87 -33t-91 -9h-165v318h-92v70h92v301h144zM284 75q35 0 64 6.5t58.5 24.5t49 47.5t32 79t12.5 115.5q0 67 -13 116.5t-33.5 77.5t-51 44.5t-59.5 21.5t-66 5h-70
v-225h157v-70h-157v-243h77z" />
    <glyph glyph-name="dcroat" unicode="&#x111;" horiz-adv-x="604" 
d="M503 676h79v-70h-79v-606h-81l-9 73q-55 -85 -152 -85q-94 0 -146.5 74t-52.5 199q0 123 56 200.5t151 77.5q81 0 142 -65v132h-158v70h158v74l92 -11v-63zM281 61q42 0 72 19.5t58 58.5v258q-54 69 -122 69q-61 0 -94.5 -51t-33.5 -152q0 -202 120 -202z" />
    <glyph glyph-name="Emacron" unicode="&#x112;" horiz-adv-x="535" 
d="M426 793h-273v69h273v-69zM473 689l-11 -76h-267v-225h232v-76h-232v-236h286v-76h-381v689h373z" />
    <glyph glyph-name="emacron" unicode="&#x113;" horiz-adv-x="545" 
d="M415 736v-69h-273v69h273zM493 279q0 -23 -2 -47h-336q12 -169 142 -169q71 0 137 46l40 -55q-84 -66 -184 -66q-110 0 -171.5 72t-61.5 198q0 125 59 203t160 78q105 0 161 -69t56 -191zM402 300v6q0 160 -124 160q-113 0 -123 -166h247z" />
    <glyph glyph-name="Ebreve" unicode="&#x114;" horiz-adv-x="535" 
d="M288 758q-60 0 -102 34t-48 89l61 13q23 -66 89 -66q69 0 92 66l61 -13q-6 -55 -49 -89t-104 -34zM473 689l-11 -76h-267v-225h232v-76h-232v-236h286v-76h-381v689h373z" />
    <glyph glyph-name="ebreve" unicode="&#x115;" horiz-adv-x="545" 
d="M277 643q-61 0 -102.5 35.5t-47.5 97.5l61 13q21 -76 89 -76q71 0 92 76l61 -13q-6 -62 -48.5 -97.5t-104.5 -35.5zM493 279q0 -23 -2 -47h-336q12 -169 142 -169q71 0 137 46l40 -55q-84 -66 -184 -66q-110 0 -171.5 72t-61.5 198q0 125 59 203t160 78q105 0 161 -69
t56 -191zM402 300v6q0 160 -124 160q-113 0 -123 -166h247z" />
    <glyph glyph-name="Edotaccent" unicode="&#x116;" horiz-adv-x="535" 
d="M289 906q29 0 47 -18t18 -45t-18 -44.5t-47 -17.5q-28 0 -46 17.5t-18 44.5t18 45t46 18zM473 689l-11 -76h-267v-225h232v-76h-232v-236h286v-76h-381v689h373z" />
    <glyph glyph-name="edotaccent" unicode="&#x117;" horiz-adv-x="545" 
d="M278 655q-28 0 -46 17.5t-18 44.5t18 45t46 18q29 0 47 -18t18 -45t-18 -44.5t-47 -17.5zM493 279q0 -23 -2 -47h-336q12 -169 142 -169q71 0 137 46l40 -55q-84 -66 -184 -66q-110 0 -171.5 72t-61.5 198q0 125 59 203t160 78q105 0 161 -69t56 -191zM402 300v6
q0 160 -124 160q-113 0 -123 -166h247z" />
    <glyph glyph-name="Eogonek" unicode="&#x118;" horiz-adv-x="535" 
d="M195 76h286v-76h-40q-71 -31 -97 -57.5t-26 -56.5q0 -48 56 -48q27 0 61 7l-9 -70q-35 -7 -63 -7q-57 0 -91 28.5t-34 72.5q0 81 101 131h-239v689h373l-11 -76h-267v-225h232v-76h-232v-236z" />
    <glyph glyph-name="eogonek" unicode="&#x119;" horiz-adv-x="545" 
d="M493 279q0 -23 -2 -47h-336q12 -169 142 -169q71 0 137 46l40 -55q-44 -35 -93 -52q-66 -29 -90.5 -55t-24.5 -55q0 -48 56 -48q27 0 61 7l-9 -70q-35 -7 -63 -7q-57 0 -91 28.5t-34 72.5q0 72 83 114q-100 7 -156 78t-56 191q0 125 59 203t160 78q105 0 161 -69t56 -191
zM402 300v6q0 160 -124 160q-113 0 -123 -166h247z" />
    <glyph glyph-name="Ecaron" unicode="&#x11a;" horiz-adv-x="535" 
d="M417 909l39 -45l-135 -110h-61l-136 110l40 45l126 -81zM473 689l-11 -76h-267v-225h232v-76h-232v-236h286v-76h-381v689h373z" />
    <glyph glyph-name="ecaron" unicode="&#x11b;" horiz-adv-x="545" 
d="M310 627h-61l-136 113l40 45l126 -84l127 84l39 -45zM493 279q0 -23 -2 -47h-336q12 -169 142 -169q71 0 137 46l40 -55q-84 -66 -184 -66q-110 0 -171.5 72t-61.5 198q0 125 59 203t160 78q105 0 161 -69t56 -191zM402 300v6q0 160 -124 160q-113 0 -123 -166h247z" />
    <glyph glyph-name="Gcircumflex" unicode="&#x11c;" horiz-adv-x="631" 
d="M228 759l-40 45l136 110h61l135 -110l-39 -45l-127 81zM354 701q65 0 112.5 -18.5t94.5 -57.5l-56 -58q-69 56 -151 56q-83 0 -140.5 -68t-57.5 -210q0 -145 47.5 -212t140.5 -67q76 0 131 31v208h-122l-11 77h227v-333q-107 -61 -225 -61q-136 0 -212.5 91t-76.5 266
q0 167 86.5 261.5t212.5 94.5z" />
    <glyph glyph-name="gcircumflex" unicode="&#x11d;" horiz-adv-x="520" 
d="M133 634l-39 45l135 113h61l136 -113l-40 -45l-126 84zM493 586l27 -83q-50 -16 -154 -16q93 -42 93 -133q0 -79 -54 -129t-147 -50q-36 0 -67 10q-26 -19 -26 -49q0 -43 69 -43h84q80 0 130 -41t50 -105q0 -77 -63 -118.5t-184 -41.5q-125 0 -175.5 38.5t-50.5 121.5h83
q0 -47 30 -67.5t113 -20.5t118.5 20.5t35.5 61.5q0 75 -106 75h-83q-67 0 -101.5 28.5t-34.5 71.5q0 55 58 93q-89 47 -89 146q0 81 57.5 132.5t145.5 51.5q62 -1 109 6t69.5 15t62.5 26zM252 473q-52 0 -80.5 -32.5t-28.5 -85.5q0 -54 29 -86.5t82 -32.5q54 0 82.5 31.5
t28.5 88.5q0 117 -113 117z" />
    <glyph glyph-name="Gbreve" unicode="&#x11e;" horiz-adv-x="631" 
d="M353 758q-60 0 -102 34t-48 89l61 13q23 -66 89 -66q69 0 92 66l61 -13q-6 -55 -49 -89t-104 -34zM354 701q65 0 112.5 -18.5t94.5 -57.5l-56 -58q-69 56 -151 56q-83 0 -140.5 -68t-57.5 -210q0 -145 47.5 -212t140.5 -67q76 0 131 31v208h-122l-11 77h227v-333
q-107 -61 -225 -61q-136 0 -212.5 91t-76.5 266q0 167 86.5 261.5t212.5 94.5z" />
    <glyph glyph-name="gbreve" unicode="&#x11f;" horiz-adv-x="520" 
d="M258 643q-61 0 -102.5 35.5t-47.5 97.5l61 13q21 -76 89 -76q71 0 92 76l61 -13q-6 -62 -48.5 -97.5t-104.5 -35.5zM493 586l27 -83q-50 -16 -154 -16q93 -42 93 -133q0 -79 -54 -129t-147 -50q-36 0 -67 10q-26 -19 -26 -49q0 -43 69 -43h84q80 0 130 -41t50 -105
q0 -77 -63 -118.5t-184 -41.5q-125 0 -175.5 38.5t-50.5 121.5h83q0 -47 30 -67.5t113 -20.5t118.5 20.5t35.5 61.5q0 75 -106 75h-83q-67 0 -101.5 28.5t-34.5 71.5q0 55 58 93q-89 47 -89 146q0 81 57.5 132.5t145.5 51.5q62 -1 109 6t69.5 15t62.5 26zM252 473
q-52 0 -80.5 -32.5t-28.5 -85.5q0 -54 29 -86.5t82 -32.5q54 0 82.5 31.5t28.5 88.5q0 117 -113 117z" />
    <glyph glyph-name="Gdotaccent" unicode="&#x120;" horiz-adv-x="631" 
d="M354 906q29 0 47 -18t18 -45t-18 -44.5t-47 -17.5q-28 0 -46 17.5t-18 44.5t18 45t46 18zM354 701q65 0 112.5 -18.5t94.5 -57.5l-56 -58q-69 56 -151 56q-83 0 -140.5 -68t-57.5 -210q0 -145 47.5 -212t140.5 -67q76 0 131 31v208h-122l-11 77h227v-333
q-107 -61 -225 -61q-136 0 -212.5 91t-76.5 266q0 167 86.5 261.5t212.5 94.5z" />
    <glyph glyph-name="gdotaccent" unicode="&#x121;" horiz-adv-x="520" 
d="M259 780q29 0 47 -18t18 -45t-18 -44.5t-47 -17.5q-28 0 -46 17.5t-18 44.5t18 45t46 18zM493 586l27 -83q-50 -16 -154 -16q93 -42 93 -133q0 -79 -54 -129t-147 -50q-36 0 -67 10q-26 -19 -26 -49q0 -43 69 -43h84q80 0 130 -41t50 -105q0 -77 -63 -118.5t-184 -41.5
q-125 0 -175.5 38.5t-50.5 121.5h83q0 -47 30 -67.5t113 -20.5t118.5 20.5t35.5 61.5q0 75 -106 75h-83q-67 0 -101.5 28.5t-34.5 71.5q0 55 58 93q-89 47 -89 146q0 81 57.5 132.5t145.5 51.5q62 -1 109 6t69.5 15t62.5 26zM252 473q-52 0 -80.5 -32.5t-28.5 -85.5
q0 -54 29 -86.5t82 -32.5q54 0 82.5 31.5t28.5 88.5q0 117 -113 117z" />
    <glyph glyph-name="Gcommaaccent" unicode="&#x122;" horiz-adv-x="631" 
d="M354 701q65 0 112.5 -18.5t94.5 -57.5l-56 -58q-69 56 -151 56q-83 0 -140.5 -68t-57.5 -210q0 -145 47.5 -212t140.5 -67q76 0 131 31v208h-122l-11 77h227v-333q-107 -61 -225 -61q-136 0 -212.5 91t-76.5 266q0 167 86.5 261.5t212.5 94.5zM346 -77q24 0 40.5 -16
t16.5 -40q0 -23 -26 -77l-41 -86h-53l29 116q-24 21 -24 47q0 24 17 40t41 16z" />
    <glyph glyph-name="gcommaaccent" unicode="&#x123;" horiz-adv-x="520" 
d="M261 583q-24 0 -40.5 16t-16.5 40q0 23 26 77l41 86h53l-29 -116q24 -21 24 -47q0 -24 -17 -40t-41 -16zM493 586l27 -83q-50 -16 -154 -16q93 -42 93 -133q0 -79 -54 -129t-147 -50q-36 0 -67 10q-26 -19 -26 -49q0 -43 69 -43h84q80 0 130 -41t50 -105
q0 -77 -63 -118.5t-184 -41.5q-125 0 -175.5 38.5t-50.5 121.5h83q0 -47 30 -67.5t113 -20.5t118.5 20.5t35.5 61.5q0 75 -106 75h-83q-67 0 -101.5 28.5t-34.5 71.5q0 55 58 93q-89 47 -89 146q0 81 57.5 132.5t145.5 51.5q62 -1 109 6t69.5 15t62.5 26zM252 473
q-52 0 -80.5 -32.5t-28.5 -85.5q0 -54 29 -86.5t82 -32.5q54 0 82.5 31.5t28.5 88.5q0 117 -113 117z" />
    <glyph glyph-name="Hcircumflex" unicode="&#x124;" horiz-adv-x="680" 
d="M213 759l-40 45l136 110h61l135 -110l-39 -45l-127 81zM485 0v323h-290v-323h-95v689h95v-288h290v288h95v-689h-95z" />
    <glyph glyph-name="hcircumflex" unicode="&#x125;" horiz-adv-x="586" 
d="M291 890l-126 -81l-40 45l136 110h61l135 -110l-39 -45zM343 539q72 0 112.5 -43t40.5 -118v-378h-92v365q0 56 -21.5 79t-62.5 23q-74 0 -133 -92v-375h-92v738l92 10v-294q62 85 156 85z" />
    <glyph glyph-name="Hbar" unicode="&#x126;" horiz-adv-x="688" 
d="M653 577v-69h-69v-508h-95v323h-290v-323h-95v508h-69v69h69v112h95v-112h290v112h95v-112h69zM489 401v107h-290v-107h290z" />
    <glyph glyph-name="hbar" unicode="&#x127;" horiz-adv-x="592" 
d="M349 539q72 0 112.5 -43t40.5 -118v-378h-92v365q0 56 -21.5 79t-62.5 23q-74 0 -133 -92v-375h-92v606h-79v70h79v62l92 10v-72h148v-70h-148v-152q62 85 156 85z" />
    <glyph glyph-name="Itilde" unicode="&#x128;" horiz-adv-x="295" 
d="M205 782q-29 0 -64.5 24t-51.5 24q-28 0 -53 -46l-56 28q41 88 109 88q30 0 65 -24t51 -24q27 0 53 44l56 -28q-39 -86 -109 -86zM195 689v-689h-95v689h95z" />
    <glyph glyph-name="itilde" unicode="&#x129;" horiz-adv-x="282" 
d="M199 656q-29 0 -64.5 24t-51.5 24q-28 0 -53 -46l-56 28q41 88 109 88q30 0 65 -24t51 -24q27 0 53 44l56 -28q-39 -86 -109 -86zM187 527v-527h-92v527h92z" />
    <glyph glyph-name="Imacron" unicode="&#x12a;" horiz-adv-x="295" 
d="M283 793h-273v69h273v-69zM195 689v-689h-95v689h95z" />
    <glyph glyph-name="imacron" unicode="&#x12b;" horiz-adv-x="282" 
d="M277 667h-273v69h273v-69zM187 527v-527h-92v527h92z" />
    <glyph glyph-name="Ibreve" unicode="&#x12c;" horiz-adv-x="295" 
d="M145 758q-60 0 -102 34t-48 89l61 13q23 -66 89 -66q69 0 92 66l61 -13q-6 -55 -49 -89t-104 -34zM195 689v-689h-95v689h95z" />
    <glyph glyph-name="ibreve" unicode="&#x12d;" horiz-adv-x="282" 
d="M139 643q-61 0 -102.5 35.5t-47.5 97.5l61 13q21 -76 89 -76q71 0 92 76l61 -13q-6 -62 -48.5 -97.5t-104.5 -35.5zM187 527v-527h-92v527h92z" />
    <glyph glyph-name="Iogonek" unicode="&#x12e;" horiz-adv-x="295" 
d="M195 0q-71 -31 -97 -57.5t-26 -56.5q0 -48 56 -48q27 0 61 7l-9 -70q-35 -7 -63 -7q-57 0 -91 28.5t-34 72.5q0 84 108 134v686h95v-689z" />
    <glyph glyph-name="iogonek" unicode="&#x12f;" horiz-adv-x="282" 
d="M140 780q29 0 47 -18t18 -45t-18 -44.5t-47 -17.5q-28 0 -46 17.5t-18 44.5t18 45t46 18zM95 5v522h92v-527q-71 -31 -97 -57.5t-26 -56.5q0 -48 56 -48q27 0 61 7l-9 -70q-35 -7 -63 -7q-57 0 -91 28.5t-34 72.5q0 84 111 136z" />
    <glyph glyph-name="Idotaccent" unicode="&#x130;" horiz-adv-x="295" 
d="M146 906q29 0 47 -18t18 -45t-18 -44.5t-47 -17.5q-28 0 -46 17.5t-18 44.5t18 45t46 18zM195 689v-689h-95v689h95z" />
    <glyph glyph-name="dotlessi" unicode="&#x131;" horiz-adv-x="282" 
d="M187 527v-527h-92v527h92z" />
    <glyph glyph-name="IJ" unicode="&#x132;" horiz-adv-x="600" 
d="M195 689v-689h-95v689h95zM505 689v-593q0 -102 -44.5 -153t-135.5 -80l-25 69q66 26 88 61.5t22 106.5v589h95z" />
    <glyph glyph-name="ij" unicode="&#x133;" horiz-adv-x="562" 
d="M140 780q29 0 47 -18t18 -45t-18 -44.5t-47 -17.5q-28 0 -46 17.5t-18 44.5t18 45t46 18zM421 780q29 0 47 -18t18 -45t-18 -44.5t-47 -17.5q-28 0 -46 17.5t-18 44.5t18 45t46 18zM187 527v-527h-92v527h92zM467 527v-495q0 -55 -9.5 -93.5t-32.5 -66t-51 -45.5t-74 -39
l-27 67q39 18 58.5 34t31.5 49t12 88v501h92z" />
    <glyph glyph-name="Jcircumflex" unicode="&#x134;" horiz-adv-x="305" 
d="M36 759l-40 45l136 110h61l135 -110l-39 -45l-127 81zM210 689v-593q0 -102 -44.5 -153t-135.5 -80l-25 69q66 26 88 61.5t22 106.5v589h95z" />
    <glyph glyph-name="jcircumflex" unicode="&#x135;" horiz-adv-x="280" 
d="M13 634l-39 45l135 113h61l136 -113l-40 -45l-126 84zM185 527v-495q0 -55 -9.5 -93.5t-32.5 -66t-51 -45.5t-74 -39l-27 67q39 18 58.5 34t31.5 49t12 88v501h92z" />
    <glyph glyph-name="Kcommaaccent" unicode="&#x136;" horiz-adv-x="589" 
d="M195 689v-689h-95v689h95zM570 689l-261 -315l280 -374h-117l-272 368l262 321h108zM318 -77q24 0 40.5 -16t16.5 -40q0 -23 -26 -77l-41 -86h-53l29 116q-24 21 -24 47q0 24 17 40t41 16z" />
    <glyph glyph-name="kcommaaccent" unicode="&#x137;" horiz-adv-x="512" 
d="M187 750v-750h-92v739zM490 527l-194 -233l216 -294h-110l-209 288l194 239h103zM258 -77q24 0 40.5 -16t16.5 -40q0 -23 -26 -77l-41 -86h-53l29 116q-24 21 -24 47q0 24 17 40t41 16z" />
    <glyph glyph-name="kgreenlandic" unicode="&#x138;" horiz-adv-x="509" 
d="M187 527v-527h-92v527h92zM487 527l-194 -243l216 -284h-110l-209 278l194 249h103z" />
    <glyph glyph-name="Lacute" unicode="&#x139;" horiz-adv-x="498" 
d="M228 911l40 -77l-216 -79l-24 49zM195 689v-606h283l-11 -83h-367v689h95z" />
    <glyph glyph-name="lacute" unicode="&#x13a;" horiz-adv-x="293" 
d="M216 961l40 -77l-216 -79l-24 49zM200 -12q-51 0 -80.5 30.5t-29.5 85.5v635l92 11v-644q0 -42 33 -42q19 0 34 6l24 -64q-33 -18 -73 -18z" />
    <glyph glyph-name="Lcommaaccent" unicode="&#x13b;" horiz-adv-x="498" 
d="M195 689v-606h283l-11 -83h-367v689h95zM287 -77q24 0 40.5 -16t16.5 -40q0 -23 -26 -77l-41 -86h-53l29 116q-24 21 -24 47q0 24 17 40t41 16z" />
    <glyph glyph-name="lcommaaccent" unicode="&#x13c;" horiz-adv-x="293" 
d="M200 -12q-51 0 -80.5 30.5t-29.5 85.5v635l92 11v-644q0 -42 33 -42q19 0 34 6l24 -64q-33 -18 -73 -18zM181 -77q24 0 40.5 -16t16.5 -40q0 -23 -26 -77l-41 -86h-53l29 116q-24 21 -24 47q0 24 17 40t41 16z" />
    <glyph glyph-name="Lcaron" unicode="&#x13d;" horiz-adv-x="498" 
d="M303 505l50 184l-83 10l-20 -186zM195 689v-606h283l-11 -83h-367v689h95z" />
    <glyph glyph-name="lcaron" unicode="&#x13e;" horiz-adv-x="293" 
d="M200 -12q-51 0 -80.5 30.5t-29.5 85.5v635l92 11v-644q0 -42 33 -42q19 0 34 6l24 -64q-33 -18 -73 -18zM281 555l50 184l-83 10l-20 -186z" />
    <glyph glyph-name="Ldot" unicode="&#x13f;" horiz-adv-x="498" 
d="M195 689v-606h283l-11 -83h-367v689h95zM390 450q29 0 47 -18t18 -45t-18 -44.5t-47 -17.5q-28 0 -46 17.5t-18 44.5t18 45t46 18z" />
    <glyph glyph-name="ldot" unicode="&#x140;" horiz-adv-x="332" 
d="M200 -12q-51 0 -80.5 30.5t-29.5 85.5v635l92 11v-644q0 -42 33 -42q19 0 34 6l24 -64q-33 -18 -73 -18zM297 440q29 0 47 -18t18 -45t-18 -44.5t-47 -17.5q-28 0 -46 17.5t-18 44.5t18 45t46 18z" />
    <glyph glyph-name="Lslash" unicode="&#x141;" horiz-adv-x="514" 
d="M211 83h283l-11 -83h-367v257l-56 -35l-38 60l94 58v349h95v-290l160 99l38 -60l-198 -123v-232z" />
    <glyph glyph-name="lslash" unicode="&#x142;" horiz-adv-x="312" 
d="M221 64q19 0 34 6l24 -64q-33 -18 -73 -18q-51 0 -80.5 30.5t-29.5 85.5v196l-51 -31l-35 59l86 54v357l92 11v-313l91 55l33 -60l-124 -76v-250q0 -42 33 -42z" />
    <glyph glyph-name="Nacute" unicode="&#x143;" horiz-adv-x="683" 
d="M433 911l40 -77l-216 -79l-24 49zM583 689v-689h-127l-280 585q13 -148 13 -269v-316h-89v689h124l283 -586q-13 104 -13 210v376h89z" />
    <glyph glyph-name="nacute" unicode="&#x144;" horiz-adv-x="586" 
d="M418 724l-212 -86l-28 49l199 114zM343 539q72 0 112.5 -43t40.5 -118v-378h-92v365q0 56 -21 79t-62 23q-76 0 -134 -93v-374h-92v527h79l8 -78q60 90 161 90z" />
    <glyph glyph-name="Ncommaaccent" unicode="&#x145;" horiz-adv-x="683" 
d="M583 689v-689h-127l-280 585q13 -148 13 -269v-316h-89v689h124l283 -586q-13 104 -13 210v376h89zM346 -77q24 0 40.5 -16t16.5 -40q0 -23 -26 -77l-41 -86h-53l29 116q-24 21 -24 47q0 24 17 40t41 16z" />
    <glyph glyph-name="ncommaaccent" unicode="&#x146;" horiz-adv-x="586" 
d="M343 539q72 0 112.5 -43t40.5 -118v-378h-92v365q0 56 -21 79t-62 23q-76 0 -134 -93v-374h-92v527h79l8 -78q60 90 161 90zM296 -77q24 0 40.5 -16t16.5 -40q0 -23 -26 -77l-41 -86h-53l29 116q-24 21 -24 47q0 24 17 40t41 16z" />
    <glyph glyph-name="Ncaron" unicode="&#x147;" horiz-adv-x="683" 
d="M480 909l39 -45l-135 -110h-61l-136 110l40 45l126 -81zM583 689v-689h-127l-280 585q13 -148 13 -269v-316h-89v689h124l283 -586q-13 104 -13 210v376h89z" />
    <glyph glyph-name="ncaron" unicode="&#x148;" horiz-adv-x="586" 
d="M329 627h-61l-136 113l40 45l126 -84l127 84l39 -45zM343 539q72 0 112.5 -43t40.5 -118v-378h-92v365q0 56 -21 79t-62 23q-76 0 -134 -93v-374h-92v527h79l8 -78q60 90 161 90z" />
    <glyph glyph-name="napostrophe" unicode="&#x149;" horiz-adv-x="695" 
d="M103 753q24 0 40.5 -16t16.5 -40q0 -23 -26 -77l-41 -86h-53l29 116q-24 21 -24 47q0 24 17 40t41 16zM452 539q72 0 112.5 -43t40.5 -118v-378h-92v365q0 56 -21 79t-62 23q-76 0 -134 -93v-374h-92v527h79l8 -78q60 90 161 90z" />
    <glyph glyph-name="Eng" unicode="&#x14a;" horiz-adv-x="683" 
d="M494 689h89v-746q0 -76 -40 -116t-111 -40q-65 0 -115 38l37 60q37 -22 73 -22q61 0 61 74v63h-32l-280 585q13 -148 13 -269v-316h-89v689h124l283 -586q-13 104 -13 210v376z" />
    <glyph glyph-name="eng" unicode="&#x14b;" horiz-adv-x="586" 
d="M343 539q72 0 112.5 -43t40.5 -118v-435q0 -76 -40.5 -116t-110.5 -40q-65 0 -115 38l36 58q39 -22 74 -22q64 0 64 74v430q0 56 -21 79t-62 23q-76 0 -134 -93v-374h-92v527h79l8 -78q60 90 161 90z" />
    <glyph glyph-name="Omacron" unicode="&#x14c;" horiz-adv-x="692" 
d="M482 793h-273v69h273v-69zM346 701q133 0 212 -93.5t79 -263.5q0 -168 -79.5 -262t-211.5 -94t-211.5 93t-79.5 262q0 168 80 263t211 95zM346 623q-190 0 -190 -280q0 -143 50.5 -210t139.5 -67q190 0 190 278q0 279 -190 279z" />
    <glyph glyph-name="omacron" unicode="&#x14d;" horiz-adv-x="584" 
d="M428 667h-273v69h273v-69zM293 539q111 0 172.5 -74t61.5 -201q0 -124 -62.5 -200t-172.5 -76q-111 0 -173 74t-62 201q0 125 62.5 200.5t173.5 75.5zM293 465q-137 0 -137 -202q0 -201 136 -201t136 202q0 201 -135 201z" />
    <glyph glyph-name="Obreve" unicode="&#x14e;" horiz-adv-x="692" 
d="M344 758q-60 0 -102 34t-48 89l61 13q23 -66 89 -66q69 0 92 66l61 -13q-6 -55 -49 -89t-104 -34zM346 701q133 0 212 -93.5t79 -263.5q0 -168 -79.5 -262t-211.5 -94t-211.5 93t-79.5 262q0 168 80 263t211 95zM346 623q-190 0 -190 -280q0 -143 50.5 -210t139.5 -67
q190 0 190 278q0 279 -190 279z" />
    <glyph glyph-name="obreve" unicode="&#x14f;" horiz-adv-x="584" 
d="M290 643q-61 0 -102.5 35.5t-47.5 97.5l61 13q21 -76 89 -76q71 0 92 76l61 -13q-6 -62 -48.5 -97.5t-104.5 -35.5zM293 539q111 0 172.5 -74t61.5 -201q0 -124 -62.5 -200t-172.5 -76q-111 0 -173 74t-62 201q0 125 62.5 200.5t173.5 75.5zM293 465q-137 0 -137 -202
q0 -201 136 -201t136 202q0 201 -135 201z" />
    <glyph glyph-name="Ohungarumlaut" unicode="&#x150;" horiz-adv-x="692" 
d="M309 958l78 -41l-96 -152l-58 25zM461 958l78 -41l-106 -157l-58 25zM346 701q133 0 212 -93.5t79 -263.5q0 -168 -79.5 -262t-211.5 -94t-211.5 93t-79.5 262q0 168 80 263t211 95zM346 623q-190 0 -190 -280q0 -143 50.5 -210t139.5 -67q190 0 190 278q0 279 -190 279z
" />
    <glyph glyph-name="ohungarumlaut" unicode="&#x151;" horiz-adv-x="584" 
d="M263 832l78 -41l-96 -152l-58 25zM415 832l78 -41l-106 -157l-58 25zM293 539q111 0 172.5 -74t61.5 -201q0 -124 -62.5 -200t-172.5 -76q-111 0 -173 74t-62 201q0 125 62.5 200.5t173.5 75.5zM293 465q-137 0 -137 -202q0 -201 136 -201t136 202q0 201 -135 201z" />
    <glyph glyph-name="OE" unicode="&#x152;" horiz-adv-x="897" 
d="M843 76v-76h-437q-34 -12 -73 -12q-123 0 -200.5 93.5t-77.5 261.5q0 166 78 262t200 96q39 0 77 -12h425l-11 -76h-298q78 -78 89 -225h174v-76h-173q-9 -153 -97 -236h324zM156 343q0 -142 49 -209.5t131 -67.5q84 0 132 67t48 211q0 143 -47.5 211t-132.5 68
q-83 0 -131.5 -68.5t-48.5 -211.5z" />
    <glyph glyph-name="oe" unicode="&#x153;" horiz-adv-x="916" 
d="M864 279q0 -23 -2 -47h-336q12 -169 142 -169q71 0 137 46l40 -55q-84 -66 -184 -66q-125 0 -185 109q-62 -109 -184 -109q-111 0 -173 74t-62 201q0 125 62.5 200.5t173.5 75.5q126 0 185 -106q59 106 174 106q102 0 157 -69t55 -191zM773 300v6q0 78 -30.5 119
t-88.5 41q-118 0 -128 -166h247zM292 62q136 0 136 202q0 201 -135 201q-137 0 -137 -202q0 -201 136 -201z" />
    <glyph glyph-name="Racute" unicode="&#x154;" horiz-adv-x="605" 
d="M419 834l-216 -79l-24 49l200 107zM467 0l-165 292h-107v-292h-95v689h181q262 0 262 -195q0 -140 -149 -185l186 -309h-113zM195 365h96q151 0 151 129q0 64 -38.5 92.5t-123.5 28.5h-85v-250z" />
    <glyph glyph-name="racute" unicode="&#x155;" horiz-adv-x="386" 
d="M358 724l-212 -86l-28 49l199 114zM324 539q28 0 52 -6l-17 -90q-24 6 -46 6q-49 0 -79 -36t-47 -112v-301h-92v527h79l9 -107q42 119 141 119z" />
    <glyph glyph-name="Rcommaaccent" unicode="&#x156;" horiz-adv-x="605" 
d="M394 309l186 -309h-113l-165 292h-107v-292h-95v689h181q262 0 262 -195q0 -140 -149 -185zM195 365h96q151 0 151 129q0 64 -38.5 92.5t-123.5 28.5h-85v-250zM312 -77q24 0 40.5 -16t16.5 -40q0 -23 -26 -77l-41 -86h-53l29 116q-24 21 -24 47q0 24 17 40t41 16z" />
    <glyph glyph-name="rcommaaccent" unicode="&#x157;" horiz-adv-x="386" 
d="M324 539q28 0 52 -6l-17 -90q-24 6 -46 6q-49 0 -79 -36t-47 -112v-301h-92v527h79l9 -107q42 119 141 119zM144 -77q24 0 40.5 -16t16.5 -40q0 -23 -26 -77l-41 -86h-53l29 116q-24 21 -24 47q0 24 17 40t41 16z" />
    <glyph glyph-name="Rcaron" unicode="&#x158;" horiz-adv-x="605" 
d="M330 754h-61l-136 110l40 45l126 -81l127 81l39 -45zM467 0l-165 292h-107v-292h-95v689h181q262 0 262 -195q0 -140 -149 -185l186 -309h-113zM195 365h96q151 0 151 129q0 64 -38.5 92.5t-123.5 28.5h-85v-250z" />
    <glyph glyph-name="rcaron" unicode="&#x159;" horiz-adv-x="386" 
d="M269 627h-61l-136 113l40 45l126 -84l127 84l39 -45zM183 420q42 119 141 119q28 0 52 -6l-17 -90q-24 6 -46 6q-49 0 -79 -36t-47 -112v-301h-92v527h79z" />
    <glyph glyph-name="Sacute" unicode="&#x15a;" horiz-adv-x="545" 
d="M356 911l40 -77l-216 -79l-24 49zM270 701q124 0 213 -80l-52 -58q-74 60 -157 60q-54 0 -89 -25t-35 -73q0 -45 30 -70.5t121 -53.5q48 -15 79.5 -29t62.5 -38t46.5 -59t15.5 -83q0 -92 -66 -148t-180 -56q-143 0 -234 89l52 58q85 -69 181 -69q64 0 106 31.5t42 91.5
q0 51 -31 78.5t-118 54.5q-106 32 -155 77t-49 122q0 79 61 129.5t156 50.5z" />
    <glyph glyph-name="sacute" unicode="&#x15b;" horiz-adv-x="467" 
d="M324 801l41 -77l-212 -86l-28 49zM238 539q100 0 179 -60l-39 -58q-70 45 -137 45q-45 0 -71 -18.5t-26 -50.5t24.5 -50t88.5 -35q88 -22 131.5 -60t43.5 -104q0 -78 -60.5 -119t-147.5 -41q-120 0 -199 69l49 56q67 -51 148 -51q52 0 82.5 21.5t30.5 58.5q0 39 -25.5 59
t-102.5 40q-84 22 -121.5 59t-37.5 94q0 63 54 104t136 41z" />
    <glyph glyph-name="Scircumflex" unicode="&#x15c;" horiz-adv-x="545" 
d="M149 759l-40 45l136 110h61l135 -110l-39 -45l-127 81zM270 701q124 0 213 -80l-52 -58q-74 60 -157 60q-54 0 -89 -25t-35 -73q0 -45 30 -70.5t121 -53.5q48 -15 79.5 -29t62.5 -38t46.5 -59t15.5 -83q0 -92 -66 -148t-180 -56q-143 0 -234 89l52 58q85 -69 181 -69
q64 0 106 31.5t42 91.5q0 51 -31 78.5t-118 54.5q-106 32 -155 77t-49 122q0 79 61 129.5t156 50.5z" />
    <glyph glyph-name="scircumflex" unicode="&#x15d;" horiz-adv-x="467" 
d="M118 634l-39 45l135 113h61l136 -113l-40 -45l-126 84zM238 539q100 0 179 -60l-39 -58q-70 45 -137 45q-45 0 -71 -18.5t-26 -50.5t24.5 -50t88.5 -35q88 -22 131.5 -60t43.5 -104q0 -78 -60.5 -119t-147.5 -41q-120 0 -199 69l49 56q67 -51 148 -51q52 0 82.5 21.5
t30.5 58.5q0 39 -25.5 59t-102.5 40q-84 22 -121.5 59t-37.5 94q0 63 54 104t136 41z" />
    <glyph glyph-name="Scedilla" unicode="&#x15e;" horiz-adv-x="545" 
d="M505 192q0 -84 -55 -138.5t-153 -63.5v-46q48 -4 70.5 -27.5t22.5 -57.5q0 -48 -35 -74t-89 -26q-59 0 -91 24l25 52q30 -16 63 -16q50 0 50 40q0 42 -89 42l11 88q-128 7 -210 88l52 58q85 -69 181 -69q64 0 106 31.5t42 91.5q0 51 -31 78.5t-118 54.5q-106 32 -155 77
t-49 122q0 79 61 129.5t156 50.5q124 0 213 -80l-52 -58q-74 60 -157 60q-54 0 -89 -25t-35 -73q0 -45 30 -70.5t121 -53.5q48 -15 79.5 -29t62.5 -38t46.5 -59t15.5 -83z" />
    <glyph glyph-name="scedilla" unicode="&#x15f;" horiz-adv-x="467" 
d="M432 148q0 -70 -49 -110t-124 -48v-46q48 -4 70.5 -27.5t22.5 -57.5q0 -48 -35 -74t-89 -26q-59 0 -91 24l25 52q30 -16 63 -16q50 0 50 40q0 42 -89 42l11 88q-102 7 -172 68l49 56q67 -51 148 -51q52 0 82.5 21.5t30.5 58.5q0 39 -25.5 59t-102.5 40q-84 22 -121.5 59
t-37.5 94q0 63 54 104t136 41q100 0 179 -60l-39 -58q-70 45 -137 45q-45 0 -71 -18.5t-26 -50.5t24.5 -50t88.5 -35q88 -22 131.5 -60t43.5 -104z" />
    <glyph glyph-name="Scaron" unicode="&#x160;" horiz-adv-x="545" 
d="M403 909l39 -45l-135 -110h-61l-136 110l40 45l126 -81zM270 701q124 0 213 -80l-52 -58q-74 60 -157 60q-54 0 -89 -25t-35 -73q0 -45 30 -70.5t121 -53.5q48 -15 79.5 -29t62.5 -38t46.5 -59t15.5 -83q0 -92 -66 -148t-180 -56q-143 0 -234 89l52 58q85 -69 181 -69
q64 0 106 31.5t42 91.5q0 51 -31 78.5t-118 54.5q-106 32 -155 77t-49 122q0 79 61 129.5t156 50.5z" />
    <glyph glyph-name="scaron" unicode="&#x161;" horiz-adv-x="467" 
d="M372 785l39 -45l-135 -113h-61l-136 113l40 45l126 -84zM238 539q100 0 179 -60l-39 -58q-70 45 -137 45q-45 0 -71 -18.5t-26 -50.5t24.5 -50t88.5 -35q88 -22 131.5 -60t43.5 -104q0 -78 -60.5 -119t-147.5 -41q-120 0 -199 69l49 56q67 -51 148 -51q52 0 82.5 21.5
t30.5 58.5q0 39 -25.5 59t-102.5 40q-84 22 -121.5 59t-37.5 94q0 63 54 104t136 41z" />
    <glyph glyph-name="uni0162" unicode="&#x162;" horiz-adv-x="517" 
d="M306 -56q48 -4 72 -28t24 -57q0 -48 -36.5 -74t-91.5 -26t-87 24l25 52q30 -16 59 -16q54 0 54 40q0 42 -89 42l12 99h-37v608h-196v81h492l-10 -81h-191v-664z" />
    <glyph glyph-name="uni0163" unicode="&#x163;" horiz-adv-x="361" 
d="M258 -56q48 -4 70.5 -27.5t22.5 -57.5q0 -48 -35 -74t-89 -26q-59 0 -91 24l25 52q30 -16 63 -16q50 0 50 40q0 42 -89 42l11 93q-95 24 -95 144v318h-92v71h92v119l92 11v-130h125l-10 -71h-115v-314q0 -41 14.5 -59.5t48.5 -18.5q31 0 70 21l35 -61q-47 -32 -103 -36
v-44z" />
    <glyph glyph-name="Tcaron" unicode="&#x164;" horiz-adv-x="517" 
d="M386 909l39 -45l-135 -110h-61l-136 110l40 45l126 -81zM507 689l-10 -81h-191v-608h-95v608h-196v81h492z" />
    <glyph glyph-name="tcaron" unicode="&#x165;" horiz-adv-x="361" 
d="M327 748l-50 -184l-53 8l20 186zM326 85l35 -61q-53 -36 -118 -36q-67 0 -104.5 38.5t-37.5 111.5v318h-92v71h92v119l92 11v-130h125l-10 -71h-115v-314q0 -41 14.5 -59.5t48.5 -18.5q31 0 70 21z" />
    <glyph glyph-name="Tbar" unicode="&#x166;" horiz-adv-x="517" 
d="M497 606h-191v-219h125v-70h-125v-319h-95v319h-123v70h123v219h-196v81h492z" />
    <glyph glyph-name="tbar" unicode="&#x167;" horiz-adv-x="361" 
d="M326 85l35 -61q-53 -36 -118 -36q-67 0 -104.5 38.5t-37.5 111.5v148h-81v71h81v99h-92v71h92v119l92 11v-130h125l-10 -71h-115v-99h110v-71h-110v-144q0 -41 14.5 -59.5t48.5 -18.5q31 0 70 21z" />
    <glyph glyph-name="Utilde" unicode="&#x168;" horiz-adv-x="662" 
d="M389 782q-29 0 -64.5 24t-51.5 24q-28 0 -53 -46l-56 28q41 88 109 88q30 0 65 -24t51 -24q27 0 53 44l56 -28q-39 -86 -109 -86zM572 689v-468q0 -105 -64 -169t-178 -64q-115 0 -177.5 63.5t-62.5 169.5v468h95v-461q0 -160 145 -160q146 0 146 160v461h96z" />
    <glyph glyph-name="utilde" unicode="&#x169;" horiz-adv-x="582" 
d="M347 656q-29 0 -64.5 24t-51.5 24q-28 0 -53 -46l-56 28q41 88 109 88q30 0 65 -24t51 -24q27 0 53 44l56 -28q-39 -86 -109 -86zM487 527v-527h-79l-7 82q-59 -94 -164 -94q-69 0 -108 42t-39 119v378h92v-368q0 -54 19 -76.5t62 -22.5q77 0 132 91v376h92z" />
    <glyph glyph-name="Umacron" unicode="&#x16a;" horiz-adv-x="662" 
d="M467 793h-273v69h273v-69zM572 689v-468q0 -105 -64 -169t-178 -64q-115 0 -177.5 63.5t-62.5 169.5v468h95v-461q0 -160 145 -160q146 0 146 160v461h96z" />
    <glyph glyph-name="umacron" unicode="&#x16b;" horiz-adv-x="582" 
d="M425 667h-273v69h273v-69zM487 527v-527h-79l-7 82q-59 -94 -164 -94q-69 0 -108 42t-39 119v378h92v-368q0 -54 19 -76.5t62 -22.5q77 0 132 91v376h92z" />
    <glyph glyph-name="Ubreve" unicode="&#x16c;" horiz-adv-x="662" 
d="M329 758q-60 0 -102 34t-48 89l61 13q23 -66 89 -66q69 0 92 66l61 -13q-6 -55 -49 -89t-104 -34zM572 689v-468q0 -105 -64 -169t-178 -64q-115 0 -177.5 63.5t-62.5 169.5v468h95v-461q0 -160 145 -160q146 0 146 160v461h96z" />
    <glyph glyph-name="ubreve" unicode="&#x16d;" horiz-adv-x="582" 
d="M287 643q-61 0 -102.5 35.5t-47.5 97.5l61 13q21 -76 89 -76q71 0 92 76l61 -13q-6 -62 -48.5 -97.5t-104.5 -35.5zM487 527v-527h-79l-7 82q-59 -94 -164 -94q-69 0 -108 42t-39 119v378h92v-368q0 -54 19 -76.5t62 -22.5q77 0 132 91v376h92z" />
    <glyph glyph-name="Uring" unicode="&#x16e;" horiz-adv-x="662" 
d="M331 962q50 0 82 -30.5t32 -75.5t-32 -75.5t-82 -30.5t-82 30.5t-32 75.5t32 75.5t82 30.5zM331 912q-25 0 -39 -15t-14 -41t14 -41t39 -15q24 0 38.5 15t14.5 41t-14 41t-39 15zM572 689v-468q0 -105 -64 -169t-178 -64q-115 0 -177.5 63.5t-62.5 169.5v468h95v-461
q0 -160 145 -160q146 0 146 160v461h96z" />
    <glyph glyph-name="uring" unicode="&#x16f;" horiz-adv-x="582" 
d="M289 836q50 0 82 -30.5t32 -75.5t-32 -75.5t-82 -30.5t-82 30.5t-32 75.5t32 75.5t82 30.5zM289 786q-25 0 -39 -15t-14 -41t14 -41t39 -15q24 0 38.5 15t14.5 41t-14 41t-39 15zM487 527v-527h-79l-7 82q-59 -94 -164 -94q-69 0 -108 42t-39 119v378h92v-368
q0 -54 19 -76.5t62 -22.5q77 0 132 91v376h92z" />
    <glyph glyph-name="Uhungarumlaut" unicode="&#x170;" horiz-adv-x="662" 
d="M294 958l78 -41l-96 -152l-58 25zM446 958l78 -41l-106 -157l-58 25zM572 689v-468q0 -105 -64 -169t-178 -64q-115 0 -177.5 63.5t-62.5 169.5v468h95v-461q0 -160 145 -160q146 0 146 160v461h96z" />
    <glyph glyph-name="uhungarumlaut" unicode="&#x171;" horiz-adv-x="582" 
d="M260 832l78 -41l-96 -152l-58 25zM412 832l78 -41l-106 -157l-58 25zM487 527v-527h-79l-7 82q-59 -94 -164 -94q-69 0 -108 42t-39 119v378h92v-368q0 -54 19 -76.5t62 -22.5q77 0 132 91v376h92z" />
    <glyph glyph-name="Uogonek" unicode="&#x172;" horiz-adv-x="662" 
d="M476 689h96v-468q0 -82 -40 -140.5t-114 -80.5q-71 -31 -97 -57.5t-26 -56.5q0 -48 56 -48q27 0 61 7l-9 -70q-35 -7 -63 -7q-57 0 -91 28.5t-34 72.5q0 77 95 120q-106 5 -163 68t-57 164v468h95v-461q0 -160 145 -160q146 0 146 160v461z" />
    <glyph glyph-name="uogonek" unicode="&#x173;" horiz-adv-x="582" 
d="M487 0q-71 -31 -97 -57.5t-26 -56.5q0 -48 56 -48q27 0 61 7l-9 -70q-35 -7 -63 -7q-57 0 -91 28.5t-34 72.5q0 90 123 141l-6 72q-59 -94 -164 -94q-69 0 -108 42t-39 119v378h92v-368q0 -54 19 -76.5t62 -22.5q77 0 132 91v376h92v-527z" />
    <glyph glyph-name="Wcircumflex" unicode="&#x174;" horiz-adv-x="826" 
d="M286 759l-40 45l136 110h61l135 -110l-39 -45l-127 81zM801 689l-140 -689h-122l-127 577l-128 -577h-119l-140 689h93l111 -606l133 606h101l136 -606l115 606h87z" />
    <glyph glyph-name="wcircumflex" unicode="&#x175;" horiz-adv-x="717" 
d="M232 634l-39 45l135 113h61l136 -113l-40 -45l-126 84zM697 527l-120 -527h-125l-92 444l-95 -444h-122l-123 527h92l95 -463l104 463h103l99 -463l96 463h88z" />
    <glyph glyph-name="Ycircumflex" unicode="&#x176;" horiz-adv-x="550" 
d="M148 759l-40 45l136 110h61l135 -110l-39 -45l-127 81zM545 689l-222 -424v-265h-96v264l-222 425h105l168 -341l168 341h99z" />
    <glyph glyph-name="ycircumflex" unicode="&#x177;" horiz-adv-x="492" 
d="M119 634l-39 45l135 113h61l136 -113l-40 -45l-126 84zM482 527l-176 -530q-31 -92 -86.5 -145.5t-158.5 -64.5l-10 72q76 13 109.5 43.5t57.5 97.5h-31l-177 527h98l141 -460l138 460h95z" />
    <glyph glyph-name="Ydieresis" unicode="&#x178;" horiz-adv-x="550" 
d="M170 894q24 0 40.5 -16.5t16.5 -40.5t-16.5 -40.5t-40.5 -16.5q-25 0 -41.5 16.5t-16.5 40.5t16.5 40.5t41.5 16.5zM379 894q25 0 41.5 -16.5t16.5 -40.5t-16.5 -40.5t-41.5 -16.5q-24 0 -40.5 16.5t-16.5 40.5t16.5 40.5t40.5 16.5zM545 689l-222 -424v-265h-96v264
l-222 425h105l168 -341l168 341h99z" />
    <glyph glyph-name="Zacute" unicode="&#x179;" horiz-adv-x="522" 
d="M352 911l40 -77l-216 -79l-24 49zM477 689v-77l-341 -531h341l-11 -81h-436v76l344 533h-308v80h411z" />
    <glyph glyph-name="zacute" unicode="&#x17a;" horiz-adv-x="437" 
d="M298 801l41 -77l-212 -86l-28 49zM404 527v-70l-275 -380h278l-11 -77h-371v69l274 380h-251v78h356z" />
    <glyph glyph-name="Zdotaccent" unicode="&#x17b;" horiz-adv-x="522" 
d="M271 906q29 0 47 -18t18 -45t-18 -44.5t-47 -17.5q-28 0 -46 17.5t-18 44.5t18 45t46 18zM477 689v-77l-341 -531h341l-11 -81h-436v76l344 533h-308v80h411z" />
    <glyph glyph-name="zdotaccent" unicode="&#x17c;" horiz-adv-x="437" 
d="M218 780q29 0 47 -18t18 -45t-18 -44.5t-47 -17.5q-28 0 -46 17.5t-18 44.5t18 45t46 18zM404 527v-70l-275 -380h278l-11 -77h-371v69l274 380h-251v78h356z" />
    <glyph glyph-name="Zcaron" unicode="&#x17d;" horiz-adv-x="522" 
d="M399 909l39 -45l-135 -110h-61l-136 110l40 45l126 -81zM477 689v-77l-341 -531h341l-11 -81h-436v76l344 533h-308v80h411z" />
    <glyph glyph-name="zcaron" unicode="&#x17e;" horiz-adv-x="437" 
d="M346 785l39 -45l-135 -113h-61l-136 113l40 45l126 -84zM404 527v-70l-275 -380h278l-11 -77h-371v69l274 380h-251v78h356z" />
    <glyph glyph-name="longs" unicode="&#x17f;" horiz-adv-x="335" 
d="M269 750q63 0 126 -27l-29 -67q-45 20 -92 20q-42 0 -60 -18.5t-18 -57.5v-600h-92v456h-94v71h94v72q0 68 43.5 109.5t121.5 41.5z" />
    <glyph glyph-name="uni0180" unicode="&#x180;" horiz-adv-x="600" 
d="M342 539q90 0 143 -72.5t53 -202.5q0 -125 -56 -200.5t-151 -75.5q-83 0 -140 70l-9 -58h-81v606h-79v70h79v63l92 11v-74h148v-70h-148v-145q57 78 149 78zM309 61q61 0 95.5 49.5t34.5 153.5q0 202 -123 202q-70 0 -123 -82v-252q46 -71 116 -71z" />
    <glyph glyph-name="uni0181" unicode="&#x181;" horiz-adv-x="691" 
d="M487 364q71 -12 115 -50t44 -118q0 -196 -273 -196h-190v614h-32q-54 0 -54 -50q0 -29 18 -73l-64 -32q-41 59 -41 108q0 55 38 88.5t108 33.5h190q270 0 270 -174q0 -60 -37.5 -100t-91.5 -51zM356 614h-78v-217h104q60 0 98.5 29t38.5 82q0 60 -40.5 83t-122.5 23z
M373 76q84 0 128.5 25t44.5 95q0 68 -43 98t-112 30h-113v-248h95z" />
    <glyph glyph-name="uni0182" unicode="&#x182;" horiz-adv-x="579" 
d="M286 430q124 0 193.5 -53t69.5 -157q0 -114 -71.5 -167t-195.5 -53h-182v689h375l-12 -78h-268v-181h91zM290 76q76 0 117 31t41 111q0 74 -41 106t-120 32h-92v-280h95z" />
    <glyph glyph-name="uni0183" unicode="&#x183;" horiz-adv-x="594" 
d="M336 539q90 0 143 -72.5t53 -202.5q0 -125 -56 -200.5t-151 -75.5q-83 0 -140 70l-9 -58h-81v739h316l-12 -70h-212v-208q57 78 149 78zM303 61q61 0 95.5 49.5t34.5 153.5q0 202 -123 202q-70 0 -123 -82v-252q46 -71 116 -71z" />
    <glyph glyph-name="uni0184" unicode="&#x184;" horiz-adv-x="573" 
d="M285 436q124 0 193.5 -53.5t69.5 -159.5q0 -116 -71.5 -169.5t-195.5 -53.5h-182v524l-69 42q46 49 79 123h85v-253h91zM289 76q76 0 117 31.5t41 113.5q0 76 -40.5 108.5t-120.5 32.5h-92v-286h95z" />
    <glyph glyph-name="uni0185" unicode="&#x185;" horiz-adv-x="520" 
d="M261 357q224 0 224 -177q0 -89 -59.5 -134.5t-147.5 -45.5h-179v372l-69 42q47 48 79 113h82v-170h70zM270 72q117 0 117 108q0 55 -28.5 81t-98.5 26h-69v-215h79z" />
    <glyph glyph-name="uni0186" unicode="&#x186;" 
d="M239 701q124 0 195 -92t71 -263q0 -170 -79.5 -264t-208.5 -94q-114 0 -197 77l49 59q75 -56 145 -56q86 0 138 67.5t52 209.5q0 146 -47 212t-124 66q-84 0 -157 -50l-48 60q91 68 211 68z" />
    <glyph glyph-name="uni0187" unicode="&#x187;" 
d="M591 832q65 0 115 -38l-36 -59q-38 23 -74 23q-64 0 -64 -74v-51l-44 -52q-72 42 -141 42q-86 0 -138.5 -66t-52.5 -212q0 -142 52 -209.5t138 -67.5q44 0 76 15t70 43l48 -61q-73 -77 -197 -77q-129 0 -208.5 93.5t-79.5 263.5q0 168 81.5 262t204.5 94q55 0 99 -18
q1 71 40.5 110t110.5 39z" />
    <glyph glyph-name="uni0188" unicode="&#x188;" horiz-adv-x="478" 
d="M507 750q65 0 115 -38l-36 -59q-38 23 -74 23q-64 0 -64 -74v-120l-38 -50q-55 31 -119 31t-99.5 -51t-35.5 -151q0 -195 135 -195q53 0 115 40l42 -60q-72 -58 -161 -58q-107 0 -168.5 72t-61.5 199t62 203.5t168 76.5q39 0 69 -12v67q0 76 40 116t111 40z" />
    <glyph glyph-name="uni0189" unicode="&#x189;" horiz-adv-x="656" 
d="M256 689q57 0 103.5 -7.5t93 -30t78 -59.5t51 -99t19.5 -145q0 -81 -19.5 -143.5t-51 -100.5t-75.5 -62t-87 -33t-91 -9h-165v318h-92v70h92v301h144zM284 75q35 0 64 6.5t58.5 24.5t49 47.5t32 79t12.5 115.5q0 67 -13 116.5t-33.5 77.5t-51 44.5t-59.5 21.5t-66 5h-70
v-225h157v-70h-157v-243h77z" />
    <glyph glyph-name="uni018A" unicode="&#x18a;" horiz-adv-x="727" 
d="M327 689q57 0 103.5 -7.5t93 -30t78 -59.5t51 -99t19.5 -145q0 -81 -19.5 -143.5t-51 -100.5t-75.5 -62t-87 -33t-91 -9h-165v614h-32q-54 0 -54 -50q0 -29 18 -73l-64 -32q-41 59 -41 108q0 55 38 88.5t108 33.5h171zM355 75q35 0 64 6.5t58.5 24.5t49 47.5t32 79
t12.5 115.5q0 67 -13 116.5t-33.5 77.5t-51 44.5t-59.5 21.5t-66 5h-70v-538h77z" />
    <glyph glyph-name="uni018B" unicode="&#x18b;" horiz-adv-x="579" 
d="M479 689v-689h-192q-118 0 -187.5 51t-69.5 161q0 106 70 162t193 56h91v181h-275v78h370zM289 76h95v280h-92q-79 0 -120 -34t-41 -110q0 -78 40.5 -107t117.5 -29z" />
    <glyph glyph-name="uni018C" unicode="&#x18c;" horiz-adv-x="598" 
d="M503 739v-739h-81l-9 73q-55 -85 -152 -85q-94 0 -146.5 74t-52.5 199q0 123 56 200.5t151 77.5q81 0 142 -65v195h-218v70h310zM281 61q42 0 72 19.5t58 58.5v258q-54 69 -122 69q-61 0 -94.5 -51t-33.5 -152q0 -202 120 -202z" />
    <glyph glyph-name="uni018D" unicode="&#x18d;" horiz-adv-x="579" 
d="M371 63q53 -27 74.5 -59.5t21.5 -77.5q0 -60 -46.5 -101t-129.5 -41q-99 0 -178 54l47 57q57 -39 120 -39q47 0 69.5 19.5t22.5 50.5q0 34 -23.5 55t-97.5 52q-100 43 -147 99.5t-47 151.5q0 107 63 181t170 74q105 0 168.5 -67.5t63.5 -184.5q0 -149 -151 -224zM156 284
q0 -75 34 -117.5t124 -78.5q109 68 109 199q0 178 -133 178q-65 0 -99.5 -46.5t-34.5 -134.5z" />
    <glyph glyph-name="uni018E" unicode="&#x18e;" horiz-adv-x="535" 
d="M60 689h375v-689h-381v76h286v236h-232v76h232v225h-280v76z" />
    <glyph glyph-name="uni018F" unicode="&#x18f;" horiz-adv-x="649" 
d="M315 701q132 0 205.5 -87t73.5 -258q0 -182 -75.5 -275t-200.5 -93q-133 0 -203 89.5t-70 257.5q0 24 3 51h447q-4 124 -51 180.5t-133 56.5q-93 0 -179 -65l-48 58q99 85 231 85zM314 64q168 0 181 246h-356q4 -246 175 -246z" />
    <glyph glyph-name="uni0190" unicode="&#x190;" horiz-adv-x="521" 
d="M279 701q124 0 215 -85l-52 -57q-72 64 -156 64q-60 0 -89.5 -29.5t-29.5 -76.5q0 -53 35.5 -83.5t95.5 -30.5h66l-13 -78h-52q-75 0 -113.5 -32.5t-38.5 -93.5t39 -96t110 -35q95 0 159 67l56 -54q-84 -93 -220 -93q-107 0 -176.5 58t-69.5 152q0 76 45 120t113 51
q-63 14 -99 53.5t-36 102.5q0 77 55.5 126.5t155.5 49.5z" />
    <glyph glyph-name="uni0191" unicode="&#x191;" horiz-adv-x="491" 
d="M455 613h-260v-235h225v-75h-225v-360q0 -76 -40 -116t-111 -40q-65 0 -115 38l37 60q37 -22 73 -22q61 0 61 74v752h366z" />
    <glyph glyph-name="florin" unicode="&#x192;" horiz-adv-x="341" 
d="M280 676q-42 0 -60 -18.5t-18 -57.5v-73h128l-10 -71h-118v-424q0 -55 -9.5 -93.5t-32.5 -66t-51 -45.5t-74 -39l-27 67q39 18 58.5 34t31.5 49t12 88v430h-84v71h84v72q0 68 43.5 109.5t121.5 41.5q63 0 126 -27l-29 -67q-45 20 -92 20z" />
    <glyph glyph-name="uni0193" unicode="&#x193;" horiz-adv-x="589" 
d="M620 832q65 0 115 -38l-36 -59q-38 23 -74 23q-64 0 -64 -74v-59l-49 -52q-78 50 -158 50q-83 0 -140.5 -68t-57.5 -210q0 -145 47.5 -212t140.5 -67q77 0 131 32v207h-122l-11 77h227v-333q-104 -61 -232 -61q-131 0 -206.5 91t-75.5 266q0 165 85.5 260.5t201.5 95.5
q77 0 127 -27v2q0 75 39.5 115.5t111.5 40.5z" />
    <glyph glyph-name="uni0194" unicode="&#x194;" horiz-adv-x="554" 
d="M548 689l-213 -620q35 -65 49 -102.5t14 -77.5q0 -49 -30.5 -75.5t-89.5 -26.5t-89.5 26.5t-30.5 74.5q0 34 14.5 73t48.5 108l-215 620h102l171 -554l173 554h96zM310 -104q0 35 -32 111q-32 -76 -32 -111q0 -36 32 -36t32 36z" />
    <glyph glyph-name="uni0195" unicode="&#x195;" horiz-adv-x="885" 
d="M789 527q26 -141 26 -272q0 -132 -69 -199.5t-163 -67.5q-77 0 -128 46t-51 129v202q0 56 -21.5 79t-62.5 23q-74 0 -133 -92v-375h-92v738l92 10v-294q62 85 156 85q72 0 112.5 -43t40.5 -118v-207q0 -109 91 -109q54 0 94.5 47t40.5 154q0 129 -26 264h93z" />
    <glyph glyph-name="uni0196" unicode="&#x196;" horiz-adv-x="366" 
d="M319 86l37 -60q-50 -38 -115 -38q-71 0 -111 40t-40 116v545h95v-551q0 -74 61 -74q36 0 73 22z" />
    <glyph glyph-name="uni0197" unicode="&#x197;" horiz-adv-x="313" 
d="M298 396v-74h-94v-322h-95v322h-94v74h94v293h95v-293h94z" />
    <glyph glyph-name="uni0198" unicode="&#x198;" horiz-adv-x="617" 
d="M472 0l-272 368l169 242q34 49 66.5 70t81.5 21q56 0 100 -35l-34 -61q-29 19 -60 19q-25 0 -43 -11t-42 -47l-130 -192l281 -374h-117zM195 689v-689h-95v689h95z" />
    <glyph glyph-name="uni0199" unicode="&#x199;" horiz-adv-x="512" 
d="M265 676q-42 0 -60 -18.5t-18 -57.5v-600h-92v599q0 68 43.5 109.5t121.5 41.5q63 0 126 -27l-29 -67q-45 20 -92 20zM296 294l216 -294h-110l-209 288l194 239h103z" />
    <glyph glyph-name="uni019A" unicode="&#x19a;" horiz-adv-x="313" 
d="M298 337h-95v-231q0 -42 33 -42q19 0 34 6l24 -64q-33 -18 -73 -18q-51 0 -80.5 30.5t-29.5 85.5v233h-96v70h96v332l92 11v-343h95v-70z" />
    <glyph glyph-name="uni019B" unicode="&#x19b;" horiz-adv-x="490" 
d="M328 473q48 -204 84 -293.5t93 -157.5l-86 -34q-59 79 -95.5 170t-75.5 275l-139 -445l-89 22l165 487h48q-13 64 -34 103l-65 -63l-63 32l81 83q-31 20 -84 29l14 71q81 -16 124 -45l65 69l54 -47l-69 -71q41 -56 72 -185z" />
    <glyph glyph-name="uni019C" unicode="&#x19c;" horiz-adv-x="933" 
d="M738 689h95v-689h-82l-8 79q-65 -91 -161 -91q-108 0 -150 99q-76 -99 -174 -99q-79 0 -123.5 55.5t-44.5 145.5v500h95v-498q0 -60 23.5 -92.5t66.5 -32.5t73.5 21t66.5 72q-1 10 -1 30v500h95v-498q0 -60 23.5 -92.5t66.5 -32.5t73.5 21t65.5 72v530z" />
    <glyph glyph-name="uni019D" unicode="&#x19d;" horiz-adv-x="683" 
d="M494 689h89v-689h-127l-280 585q13 -148 13 -269v-375q0 -75 -40 -114.5t-108 -39.5q-65 0 -115 38l36 59q38 -23 74 -23q64 0 64 74v754h124l283 -586q-13 104 -13 210v376z" />
    <glyph glyph-name="uni019E" unicode="&#x19e;" horiz-adv-x="586" 
d="M343 539q72 0 112.5 -43t40.5 -118v-591l-92 11v567q0 56 -21 79t-62 23q-76 0 -134 -93v-374h-92v527h79l8 -78q60 90 161 90z" />
    <glyph glyph-name="uni019F" unicode="&#x19f;" horiz-adv-x="692" 
d="M346 701q133 0 212 -93.5t79 -263.5q0 -168 -79.5 -262t-211.5 -94t-211.5 93t-79.5 262q0 168 80 263t211 95zM346 623q-83 0 -134 -58t-59 -179h386q-14 237 -193 237zM346 66q183 0 193 250h-386q5 -128 56.5 -189t136.5 -61z" />
    <glyph glyph-name="Ohorn" unicode="&#x1a0;" horiz-adv-x="703" 
d="M663 691q0 -87 -89 -104q63 -93 63 -243q0 -168 -79.5 -262t-211.5 -94t-211.5 93t-79.5 262q0 168 80 263t211 95q113 0 185 -66q55 7 55 51q0 37 -14 72l72 15q19 -33 19 -82zM346 66q190 0 190 278q0 279 -190 279t-190 -280q0 -143 50.5 -210t139.5 -67z" />
    <glyph glyph-name="ohorn" unicode="&#x1a1;" horiz-adv-x="595" 
d="M590 525q0 -90 -95 -105q32 -66 32 -156q0 -124 -62.5 -200t-172.5 -76q-111 0 -173 74t-62 201q0 125 62.5 200.5t173.5 75.5q105 0 166 -67q54 7 54 48q0 37 -14 72l72 15q19 -33 19 -82zM292 62q136 0 136 202q0 201 -135 201q-137 0 -137 -202q0 -201 136 -201z" />
    <glyph glyph-name="uni01A2" unicode="&#x1a2;" horiz-adv-x="926" 
d="M663 703q80 0 121.5 -41t41.5 -119v-745h-95v748q0 83 -75 83q-48 0 -96 -26q77 -96 77 -259q0 -168 -79.5 -262t-211.5 -94t-211.5 93t-79.5 262q0 168 80 263t211 95q94 0 164 -50q76 52 153 52zM346 66q190 0 190 278q0 279 -190 279t-190 -280q0 -143 50.5 -210
t139.5 -67z" />
    <glyph glyph-name="uni01A3" unicode="&#x1a3;" horiz-adv-x="792" 
d="M542 539q76 0 115.5 -41t39.5 -119v-592l-92 11v584q0 83 -72 83q-30 0 -61 -11q55 -74 55 -190q0 -124 -62.5 -200t-172.5 -76q-111 0 -173 74t-62 201q0 125 62.5 200.5t173.5 75.5q71 0 125 -34q60 34 124 34zM292 62q136 0 136 202q0 201 -135 201q-137 0 -137 -202
q0 -201 136 -201z" />
    <glyph glyph-name="uni01A4" unicode="&#x1a4;" horiz-adv-x="664" 
d="M364 689q128 0 198 -53.5t70 -159.5q0 -113 -73 -168t-194 -55h-87v-253h-95v614h-32q-54 0 -54 -50q0 -29 18 -73l-64 -32q-41 59 -41 108q0 55 38 88.5t108 33.5h208zM361 328q83 0 126.5 32t43.5 115q0 140 -168 140h-85v-287h83z" />
    <glyph glyph-name="uni01A5" unicode="&#x1a5;" horiz-adv-x="594" 
d="M337 539q195 0 195 -275q0 -124 -54 -200t-153 -76q-88 0 -138 60v-250l-92 -11v812q0 68 43.5 109.5t121.5 41.5q63 0 126 -27l-29 -67q-45 20 -92 20q-42 0 -60 -18.5t-18 -57.5v-142q59 81 150 81zM303 63q130 0 130 201q0 202 -119 202q-72 0 -127 -82v-257
q42 -64 116 -64z" />
    <glyph glyph-name="uni01A6" unicode="&#x1a6;" horiz-adv-x="605" 
d="M467 -122l-165 292h-107v-170h-95v689h95v-122h86q262 0 262 -195q0 -140 -149 -185l186 -309h-113zM195 243h96q151 0 151 129q0 64 -38.5 92.5t-123.5 28.5h-85v-250z" />
    <glyph glyph-name="uni01A7" unicode="&#x1a7;" horiz-adv-x="537" 
d="M280 701q95 0 153.5 -47.5t58.5 -125.5t-49.5 -123t-154.5 -78q-85 -26 -117 -58.5t-32 -83.5q0 -57 40 -88t100 -31q98 0 181 68l52 -57q-92 -89 -236 -89q-106 0 -171 55.5t-65 141.5q0 88 53 134.5t151 76.5q89 28 119 55.5t30 76.5t-31.5 72t-85.5 23q-87 0 -162 -59
l-52 57q95 80 218 80z" />
    <glyph glyph-name="uni01A8" unicode="&#x1a8;" horiz-adv-x="457" 
d="M237 539q83 0 132.5 -40t49.5 -102q0 -59 -37 -94t-122 -58q-75 -20 -100.5 -41.5t-25.5 -60.5q0 -38 28 -59.5t73 -21.5q79 0 150 50l47 -55q-79 -69 -199 -69q-80 0 -139 41t-59 117q0 67 43 103.5t132 58.5q65 16 88.5 36.5t23.5 55.5q0 30 -24 48t-68 18
q-69 0 -142 -44l-38 57q84 60 187 60z" />
    <glyph glyph-name="uni01A9" unicode="&#x1a9;" horiz-adv-x="503" 
d="M463 689v-78h-316l200 -239v-62l-200 -232h316v-78h-423v78l222 261l-222 272v78h423z" />
    <glyph glyph-name="uni01AA" unicode="&#x1aa;" horiz-adv-x="308" 
d="M351 -117l36 -58q-50 -38 -115 -38q-70 0 -110.5 40t-40.5 116v543q-27 -10 -56 -10q-56 0 -93 37t-37 99t39 100t98 38q64 0 102.5 -36.5t38.5 -109.5v-669q0 -74 64 -74q35 0 74 22zM81 548q19 0 40 7v57q0 66 -47 66t-47 -64q0 -66 54 -66z" />
    <glyph glyph-name="uni01AB" unicode="&#x1ab;" horiz-adv-x="361" 
d="M333 74l28 -50v-81q0 -76 -40 -116t-111 -40q-65 0 -115 38l36 59q38 -23 74 -23q67 0 67 74v60q-18 -7 -39 -7q-59 0 -95.5 39t-36.5 111v318h-92v71h92v119l92 11v-130h125l-10 -71h-115v-318q0 -41 14.5 -59.5t48.5 -18.5q35 0 77 14z" />
    <glyph glyph-name="uni01AC" unicode="&#x1ac;" horiz-adv-x="555" 
d="M545 689l-10 -81h-191v-608h-95v608h-96q-54 0 -54 -46q0 -26 20 -68l-71 -36q-38 58 -38 107q0 56 39 90t110 34h386z" />
    <glyph glyph-name="uni01AD" unicode="&#x1ad;" horiz-adv-x="361" 
d="M256 64q33 0 70 23l35 -63q-53 -36 -118 -36q-67 0 -104.5 38.5t-37.5 111.5v318h-92v71h92v67q0 76 39.5 116t108.5 40q62 0 112 -38l-36 -59q-38 23 -71 23q-61 0 -61 -74v-75h125l-10 -71h-115v-314q0 -41 14.5 -59.5t48.5 -18.5z" />
    <glyph glyph-name="uni01AE" unicode="&#x1ae;" horiz-adv-x="517" 
d="M306 -63q0 -74 61 -74q36 0 73 22l37 -60q-50 -38 -115 -38q-71 0 -111 40t-40 116v665h-196v81h492l-10 -81h-191v-671z" />
    <glyph glyph-name="Uhorn" unicode="&#x1af;" horiz-adv-x="676" 
d="M677 773q19 -33 19 -82q0 -103 -124 -108v-362q0 -105 -64 -169t-178 -64q-115 0 -177.5 63.5t-62.5 169.5v468h95v-461q0 -160 145 -160q146 0 146 160v461h96v-53q47 9 47 50q0 37 -14 72z" />
    <glyph glyph-name="uhorn" unicode="&#x1b0;" horiz-adv-x="601" 
d="M592 607q19 -33 19 -82q0 -103 -124 -108v-417h-79l-7 82q-59 -94 -164 -94q-69 0 -108 42t-39 119v378h92v-368q0 -54 19 -76.5t62 -22.5q77 0 132 91v376h92v-54q47 9 47 47q0 37 -14 72z" />
    <glyph glyph-name="uni01B1" unicode="&#x1b1;" horiz-adv-x="692" 
d="M346 -12q-133 0 -212 88t-79 239q0 109 34 176t95 120h-107v78h202v-78q-64 -51 -93.5 -118.5t-29.5 -177.5q0 -124 50 -186.5t140 -62.5q89 0 139.5 63t50.5 187q0 106 -31 174t-91 121v78h202v-78h-107q128 -96 128 -295q0 -147 -81 -237.5t-210 -90.5z" />
    <glyph glyph-name="uni01B2" unicode="&#x1b2;" horiz-adv-x="662" 
d="M453 701q119 0 119 -127v-273q0 -143 -70.5 -228t-189.5 -85q-102 0 -162 62.5t-60 160.5v478h95v-473q0 -71 33 -109.5t94 -38.5q80 0 122 61t42 179v265q0 28 -8.5 39.5t-29.5 11.5q-19 0 -37 -7l-24 66q33 18 76 18z" />
    <glyph glyph-name="uni01B3" unicode="&#x1b3;" horiz-adv-x="586" 
d="M227 0v264l-222 425h105l168 -341l110 239q28 61 61.5 87.5t86.5 26.5q55 0 105 -40l-36 -54q-29 22 -63 22q-24 0 -40 -14.5t-35 -53.5l-144 -296v-265h-96z" />
    <glyph glyph-name="uni01B4" unicode="&#x1b4;" horiz-adv-x="496" 
d="M61 -213l-10 72q76 13 109.5 43.5t57.5 97.5h-31l-177 527h98l141 -460l105 397q16 60 42.5 85t74.5 25q37 0 70 -18l-24 -62q-15 6 -34 6q-17 0 -26.5 -9.5t-16.5 -34.5l-130 -450q-28 -97 -86 -152.5t-163 -66.5z" />
    <glyph glyph-name="uni01B5" unicode="&#x1b5;" horiz-adv-x="522" 
d="M477 689v-77l-148 -228h105v-74h-153l-149 -229h345l-11 -81h-436v76l153 234h-89v74h137l147 225h-312v80h411z" />
    <glyph glyph-name="uni01B6" unicode="&#x1b6;" horiz-adv-x="437" 
d="M126 77h281l-11 -77h-371v69l117 160h-81v70h132l109 150h-254v78h356v-70l-116 -158h84v-70h-135z" />
    <glyph glyph-name="uni01B7" unicode="&#x1b7;" horiz-adv-x="516" 
d="M235 397q117 0 176.5 -52t59.5 -147q0 -94 -66.5 -152t-178.5 -58q-139 0 -216 90l55 54q62 -66 158 -66q72 0 110.5 35.5t38.5 98.5q0 68 -38 98t-119 30h-88v67l208 216h-294v78h406v-77l-213 -215h1z" />
    <glyph glyph-name="uni01B8" unicode="&#x1b8;" horiz-adv-x="516" 
d="M451 132l55 -54q-77 -90 -223 -90q-107 0 -172.5 56.5t-65.5 146.5q0 93 61.5 149.5t174.5 56.5h1l-213 215v77h406v-78h-294l208 -216v-67h-88q-157 0 -157 -135q0 -58 37.5 -92.5t104.5 -34.5q56 0 94 15.5t71 50.5z" />
    <glyph glyph-name="uni01B9" unicode="&#x1b9;" horiz-adv-x="481" 
d="M429 -74l52 -49q-82 -90 -214 -90q-105 0 -171 58t-66 149q0 100 62 156t173 56h3l-214 251v70h396v-76h-289l203 -246v-67h-79q-82 0 -119 -34.5t-37 -107.5q0 -63 36.5 -98.5t103.5 -35.5q90 0 160 64z" />
    <glyph glyph-name="uni01BA" unicode="&#x1ba;" horiz-adv-x="470" 
d="M161 -215q-133 56 -133 140q0 50 40 78t126 38q81 10 116.5 30t35.5 65q0 68 -84 68h-151v67l193 180h-279v76h391v-70l-204 -185h55q83 0 130.5 -35.5t47.5 -101.5q0 -73 -54 -113.5t-147 -51.5q-72 -9 -97 -20t-25 -33q0 -35 73 -72z" />
    <glyph glyph-name="uni01BB" unicode="&#x1bb;" horiz-adv-x="495" 
d="M144 77h301l-11 -77h-395v73l168 179h-134v74h196q36 48 50 85.5t14 80.5q0 52 -30 81.5t-80 29.5q-41 0 -72 -17t-66 -56l-60 48q81 101 203 101q91 0 146 -52t55 -131q0 -85 -59 -170h71v-74h-129q-50 -57 -168 -175z" />
    <glyph glyph-name="uni01BC" unicode="&#x1bc;" horiz-adv-x="511" 
d="M443 689l-13 -72h-270v-210q54 29 117 29q86 0 137.5 -57.5t51.5 -159.5q0 -104 -64.5 -167.5t-172.5 -63.5q-118 0 -203 85l54 53q64 -63 148 -63q67 0 104.5 40.5t37.5 117.5q0 144 -121 144q-45 0 -105 -23h-72v347h371z" />
    <glyph glyph-name="uni01BD" unicode="&#x1bd;" horiz-adv-x="452" 
d="M381 527l-16 -76h-208v-125q42 20 91 20q71 0 117.5 -48t46.5 -126q0 -82 -56 -133t-150 -51q-102 0 -176 71l50 55q33 -26 59 -36.5t66 -10.5q48 0 78 27.5t30 79.5q0 50 -25 73.5t-66 23.5q-45 0 -91 -21h-65v277h315z" />
    <glyph glyph-name="uni01BE" unicode="&#x1be;" horiz-adv-x="513" 
d="M278 434q75 -16 126.5 -70t51.5 -152q0 -97 -62 -160t-165 -63q-111 0 -199 85l50 52q71 -63 147 -63q66 0 98.5 40t32.5 111t-30.5 108t-94.5 53l-71 16v154h-78v70h78v123l92 10v-133h108v-70h-108v-108z" />
    <glyph glyph-name="uni01BF" unicode="&#x1bf;" horiz-adv-x="589" 
d="M358 539q76 0 125 -49.5t49 -135.5q0 -60 -19 -108.5t-59.5 -87.5t-84 -67.5t-111.5 -63.5l-71 -37v-192l-92 -11v740h79l8 -76q73 88 176 88zM246 98q97 52 142 109.5t45 144.5q0 113 -96 113q-83 0 -150 -80v-319z" />
    <glyph glyph-name="uni01C0" unicode="&#x1c0;" horiz-adv-x="286" 
d="M186 749v-749h-86v739z" />
    <glyph glyph-name="uni01C1" unicode="&#x1c1;" horiz-adv-x="458" 
d="M186 749v-749h-86v739zM358 749v-749h-86v739z" />
    <glyph glyph-name="uni01C2" unicode="&#x1c2;" horiz-adv-x="313" 
d="M298 408h-98v-86h98v-63h-98v-259h-86v259h-99v63h99v86h-99v63h99v268l86 10v-278h98v-63z" />
    <glyph glyph-name="uni01C3" unicode="&#x1c3;" horiz-adv-x="339" 
d="M212 749v-539h-86v529zM169 127q30 0 50 -20t20 -49t-20 -49.5t-50 -20.5q-29 0 -49 20.5t-20 49.5t20 49t49 20z" />
    <glyph glyph-name="uni01C4" unicode="&#x1c4;" horiz-adv-x="1141" 
d="M1018 909l39 -45l-135 -110h-61l-136 110l40 45l126 -81zM244 689q57 0 103.5 -7.5t93 -30t78 -59.5t51 -99t19.5 -145q0 -81 -19.5 -143.5t-51 -100.5t-75.5 -62t-87 -33t-91 -9h-165v689h144zM1096 689v-77l-341 -531h341l-11 -81h-436v76l344 533h-308v80h411z
M265 613h-70v-538h77q35 0 64 6.5t58.5 24.5t49 47.5t32 79t12.5 115.5q0 67 -13 116.5t-33.5 77.5t-51 44.5t-59.5 21.5t-66 5z" />
    <glyph glyph-name="uni01C5" unicode="&#x1c5;" horiz-adv-x="1071" 
d="M980 785l39 -45l-135 -113h-61l-136 113l40 45l126 -84zM244 689q57 0 103.5 -7.5t93 -30t78 -59.5t51 -99t19.5 -145q0 -81 -19.5 -143.5t-51 -100.5t-75.5 -62t-87 -33t-91 -9h-165v689h144zM265 613h-70v-538h77q35 0 64 6.5t58.5 24.5t49 47.5t32 79t12.5 115.5
q0 67 -13 116.5t-33.5 77.5t-51 44.5t-59.5 21.5t-66 5zM1038 527v-70l-275 -380h278l-11 -77h-371v69l274 380h-251v78h356z" />
    <glyph glyph-name="uni01C6" unicode="&#x1c6;" horiz-adv-x="1035" 
d="M848 627h-61l-136 113l40 45l126 -84l127 84l39 -45zM411 474v276l92 -11v-739h-81l-9 73q-55 -85 -152 -85q-94 0 -146.5 74t-52.5 199q0 123 56 200.5t151 77.5q81 0 142 -65zM727 77h278l-11 -77h-371v69l274 380h-251v78h356v-70zM281 61q42 0 72 19.5t58 58.5v258
q-54 69 -122 69q-61 0 -94.5 -51t-33.5 -152q0 -202 120 -202z" />
    <glyph glyph-name="uni01C7" unicode="&#x1c7;" horiz-adv-x="784" 
d="M195 689v-606h283l-11 -83h-367v689h95zM689 689v-593q0 -102 -44.5 -153t-135.5 -80l-25 69q66 26 88 61.5t22 106.5v589h95z" />
    <glyph glyph-name="uni01C8" unicode="&#x1c8;" horiz-adv-x="763" 
d="M622 780q29 0 47 -18t18 -45t-18 -44.5t-47 -17.5q-28 0 -46 17.5t-18 44.5t18 45t46 18zM195 689v-606h283l-11 -83h-367v689h95zM668 527v-495q0 -55 -9.5 -93.5t-32.5 -66t-51 -45.5t-74 -39l-27 67q39 18 58.5 34t31.5 49t12 88v501h92z" />
    <glyph glyph-name="uni01C9" unicode="&#x1c9;" horiz-adv-x="573" 
d="M432 780q29 0 47 -18t18 -45t-18 -44.5t-47 -17.5q-28 0 -46 17.5t-18 44.5t18 45t46 18zM200 -12q-51 0 -80.5 30.5t-29.5 85.5v635l92 11v-644q0 -42 33 -42q19 0 34 6l24 -64q-33 -18 -73 -18zM478 527v-495q0 -55 -9.5 -93.5t-32.5 -66t-51 -45.5t-74 -39l-27 67
q39 18 58.5 34t31.5 49t12 88v501h92z" />
    <glyph glyph-name="uni01CA" unicode="&#x1ca;" horiz-adv-x="988" 
d="M583 689v-689h-127l-280 585q13 -148 13 -269v-316h-89v689h124l283 -586q-13 104 -13 210v376h89zM893 689v-593q0 -102 -44.5 -153t-135.5 -80l-25 69q66 26 88 61.5t22 106.5v589h95z" />
    <glyph glyph-name="uni01CB" unicode="&#x1cb;" horiz-adv-x="963" 
d="M822 780q29 0 47 -18t18 -45t-18 -44.5t-47 -17.5q-28 0 -46 17.5t-18 44.5t18 45t46 18zM583 689v-689h-127l-280 585q13 -148 13 -269v-316h-89v689h124l283 -586q-13 104 -13 210v376h89zM868 527v-495q0 -55 -9.5 -93.5t-32.5 -66t-51 -45.5t-74 -39l-27 67
q39 18 58.5 34t31.5 49t12 88v501h92z" />
    <glyph glyph-name="uni01CC" unicode="&#x1cc;" horiz-adv-x="866" 
d="M725 780q29 0 47 -18t18 -45t-18 -44.5t-47 -17.5q-28 0 -46 17.5t-18 44.5t18 45t46 18zM343 539q72 0 112.5 -43t40.5 -118v-378h-92v365q0 56 -21 79t-62 23q-76 0 -134 -93v-374h-92v527h79l8 -78q60 90 161 90zM679 26v501h92v-495q0 -55 -9.5 -93.5t-32.5 -66
t-51 -45.5t-74 -39l-27 67q39 18 58.5 34t31.5 49t12 88z" />
    <glyph glyph-name="uni01CD" unicode="&#x1cd;" horiz-adv-x="573" 
d="M318 754h-61l-136 110l40 45l126 -81l127 81l39 -45zM467 0l-52 173h-261l-52 -173h-96l221 689h120l220 -689h-100zM177 250h215l-107 360z" />
    <glyph glyph-name="uni01CE" unicode="&#x1ce;" horiz-adv-x="544" 
d="M292 627h-61l-136 113l40 45l126 -84l127 84l39 -45zM450 123q0 -32 11 -47.5t33 -23.5l-21 -64q-82 9 -103 79q-53 -79 -157 -79q-78 0 -123 44t-45 115q0 84 60.5 129t171.5 45h81v39q0 56 -27 80t-83 24q-58 0 -142 -28l-23 67q97 36 182 36q185 0 185 -175v-241z
M234 57q79 0 124 82v121h-69q-146 0 -146 -108q0 -95 91 -95z" />
    <glyph glyph-name="uni01CF" unicode="&#x1cf;" horiz-adv-x="295" 
d="M274 909l39 -45l-135 -110h-61l-136 110l40 45l126 -81zM195 689v-689h-95v689h95z" />
    <glyph glyph-name="uni01D0" unicode="&#x1d0;" horiz-adv-x="282" 
d="M268 785l39 -45l-135 -113h-61l-136 113l40 45l126 -84zM187 527v-527h-92v527h92z" />
    <glyph glyph-name="uni01D1" unicode="&#x1d1;" horiz-adv-x="692" 
d="M473 909l39 -45l-135 -110h-61l-136 110l40 45l126 -81zM346 701q133 0 212 -93.5t79 -263.5q0 -168 -79.5 -262t-211.5 -94t-211.5 93t-79.5 262q0 168 80 263t211 95zM346 623q-190 0 -190 -280q0 -143 50.5 -210t139.5 -67q190 0 190 278q0 279 -190 279z" />
    <glyph glyph-name="uni01D2" unicode="&#x1d2;" horiz-adv-x="584" 
d="M419 785l39 -45l-135 -113h-61l-136 113l40 45l126 -84zM293 539q111 0 172.5 -74t61.5 -201q0 -124 -62.5 -200t-172.5 -76q-111 0 -173 74t-62 201q0 125 62.5 200.5t173.5 75.5zM293 465q-137 0 -137 -202q0 -201 136 -201t136 202q0 201 -135 201z" />
    <glyph glyph-name="uni01D3" unicode="&#x1d3;" horiz-adv-x="662" 
d="M458 909l39 -45l-135 -110h-61l-136 110l40 45l126 -81zM572 689v-468q0 -105 -64 -169t-178 -64q-115 0 -177.5 63.5t-62.5 169.5v468h95v-461q0 -160 145 -160q146 0 146 160v461h96z" />
    <glyph glyph-name="uni01D4" unicode="&#x1d4;" horiz-adv-x="582" 
d="M416 785l39 -45l-135 -113h-61l-136 113l40 45l126 -84zM487 527v-527h-79l-7 82q-59 -94 -164 -94q-69 0 -108 42t-39 119v378h92v-368q0 -54 19 -76.5t62 -22.5q77 0 132 91v376h92z" />
    <glyph glyph-name="uni01D5" unicode="&#x1d5;" horiz-adv-x="662" 
d="M469 903h-273v69h273v-69zM226 860q24 0 40.5 -16.5t16.5 -40.5t-16.5 -40.5t-40.5 -16.5q-25 0 -41.5 16.5t-16.5 40.5t16.5 40.5t41.5 16.5zM435 860q25 0 41.5 -16.5t16.5 -40.5t-16.5 -40.5t-41.5 -16.5q-24 0 -40.5 16.5t-16.5 40.5t16.5 40.5t40.5 16.5zM572 689
v-468q0 -105 -64 -169t-178 -64q-115 0 -177.5 63.5t-62.5 169.5v468h95v-461q0 -160 145 -160q146 0 146 160v461h96z" />
    <glyph glyph-name="uni01D6" unicode="&#x1d6;" horiz-adv-x="582" 
d="M425 791h-273v69h273v-69zM184 738q24 0 40.5 -16.5t16.5 -40.5t-16.5 -40.5t-40.5 -16.5q-25 0 -41.5 16.5t-16.5 40.5t16.5 40.5t41.5 16.5zM393 738q25 0 41.5 -16.5t16.5 -40.5t-16.5 -40.5t-41.5 -16.5q-24 0 -40.5 16.5t-16.5 40.5t16.5 40.5t40.5 16.5zM487 527
v-527h-79l-7 82q-59 -94 -164 -94q-69 0 -108 42t-39 119v378h92v-368q0 -54 19 -76.5t62 -22.5q77 0 132 91v376h92z" />
    <glyph glyph-name="uni01D7" unicode="&#x1d7;" horiz-adv-x="662" 
d="M413 1015l56 -54l-136 -126l-38 35zM226 860q24 0 40.5 -16.5t16.5 -40.5t-16.5 -40.5t-40.5 -16.5q-25 0 -41.5 16.5t-16.5 40.5t16.5 40.5t41.5 16.5zM435 860q25 0 41.5 -16.5t16.5 -40.5t-16.5 -40.5t-41.5 -16.5q-24 0 -40.5 16.5t-16.5 40.5t16.5 40.5t40.5 16.5z
M572 689v-468q0 -105 -64 -169t-178 -64q-115 0 -177.5 63.5t-62.5 169.5v468h95v-461q0 -160 145 -160q146 0 146 160v461h96z" />
    <glyph glyph-name="uni01D8" unicode="&#x1d8;" horiz-adv-x="582" 
d="M371 893l56 -54l-136 -126l-38 35zM184 738q24 0 40.5 -16.5t16.5 -40.5t-16.5 -40.5t-40.5 -16.5q-25 0 -41.5 16.5t-16.5 40.5t16.5 40.5t41.5 16.5zM393 738q25 0 41.5 -16.5t16.5 -40.5t-16.5 -40.5t-41.5 -16.5q-24 0 -40.5 16.5t-16.5 40.5t16.5 40.5t40.5 16.5z
M487 527v-527h-79l-7 82q-59 -94 -164 -94q-69 0 -108 42t-39 119v378h92v-368q0 -54 19 -76.5t62 -22.5q77 0 132 91v376h92z" />
    <glyph glyph-name="uni01D9" unicode="&#x1d9;" horiz-adv-x="662" 
d="M455 1021l39 -45l-135 -110h-61l-136 110l40 45l126 -81zM226 860q24 0 40.5 -16.5t16.5 -40.5t-16.5 -40.5t-40.5 -16.5q-25 0 -41.5 16.5t-16.5 40.5t16.5 40.5t41.5 16.5zM435 860q25 0 41.5 -16.5t16.5 -40.5t-16.5 -40.5t-41.5 -16.5q-24 0 -40.5 16.5t-16.5 40.5
t16.5 40.5t40.5 16.5zM572 689v-468q0 -105 -64 -169t-178 -64q-115 0 -177.5 63.5t-62.5 169.5v468h95v-461q0 -160 145 -160q146 0 146 160v461h96z" />
    <glyph glyph-name="uni01DA" unicode="&#x1da;" horiz-adv-x="582" 
d="M416 899l39 -45l-135 -110h-61l-136 110l40 45l126 -81zM185 738q24 0 40.5 -16.5t16.5 -40.5t-16.5 -40.5t-40.5 -16.5q-25 0 -41.5 16.5t-16.5 40.5t16.5 40.5t41.5 16.5zM394 738q25 0 41.5 -16.5t16.5 -40.5t-16.5 -40.5t-41.5 -16.5q-24 0 -40.5 16.5t-16.5 40.5
t16.5 40.5t40.5 16.5zM487 527v-527h-79l-7 82q-59 -94 -164 -94q-69 0 -108 42t-39 119v378h92v-368q0 -54 19 -76.5t62 -22.5q77 0 132 91v376h92z" />
    <glyph glyph-name="uni01DB" unicode="&#x1db;" horiz-adv-x="662" 
d="M251 1015l118 -145l-38 -35l-136 126zM226 860q24 0 40.5 -16.5t16.5 -40.5t-16.5 -40.5t-40.5 -16.5q-25 0 -41.5 16.5t-16.5 40.5t16.5 40.5t41.5 16.5zM435 860q25 0 41.5 -16.5t16.5 -40.5t-16.5 -40.5t-41.5 -16.5q-24 0 -40.5 16.5t-16.5 40.5t16.5 40.5t40.5 16.5
zM572 689v-468q0 -105 -64 -169t-178 -64q-115 0 -177.5 63.5t-62.5 169.5v468h95v-461q0 -160 145 -160q146 0 146 160v461h96z" />
    <glyph glyph-name="uni01DC" unicode="&#x1dc;" horiz-adv-x="582" 
d="M209 893l118 -145l-38 -35l-136 126zM184 738q24 0 40.5 -16.5t16.5 -40.5t-16.5 -40.5t-40.5 -16.5q-25 0 -41.5 16.5t-16.5 40.5t16.5 40.5t41.5 16.5zM393 738q25 0 41.5 -16.5t16.5 -40.5t-16.5 -40.5t-41.5 -16.5q-24 0 -40.5 16.5t-16.5 40.5t16.5 40.5t40.5 16.5z
M487 527v-527h-79l-7 82q-59 -94 -164 -94q-69 0 -108 42t-39 119v378h92v-368q0 -54 19 -76.5t62 -22.5q77 0 132 91v376h92z" />
    <glyph glyph-name="uni01DD" unicode="&#x1dd;" horiz-adv-x="554" 
d="M269 539q114 0 171 -72.5t57 -202.5q0 -127 -61 -201.5t-165 -74.5q-101 0 -160 69.5t-59 190.5q0 33 2 47h345q-5 88 -38 128.5t-94 40.5q-75 0 -135 -49l-42 61q78 63 179 63zM271 61q60 0 92.5 39t36.5 127h-258v-8q0 -75 34.5 -116.5t94.5 -41.5z" />
    <glyph glyph-name="uni01DE" unicode="&#x1de;" horiz-adv-x="573" 
d="M425 972v-69h-273v69h273zM182 746q-25 0 -41.5 16.5t-16.5 40.5t16.5 40.5t41.5 16.5q24 0 40.5 -16.5t16.5 -40.5t-16.5 -40.5t-40.5 -16.5zM334 803q0 24 16.5 40.5t40.5 16.5q25 0 41.5 -16.5t16.5 -40.5t-16.5 -40.5t-41.5 -16.5q-24 0 -40.5 16.5t-16.5 40.5z
M467 0l-52 173h-261l-52 -173h-96l221 689h120l220 -689h-100zM177 250h215l-107 360z" />
    <glyph glyph-name="uni01DF" unicode="&#x1df;" horiz-adv-x="544" 
d="M397 860v-69h-273v69h273zM156 624q-25 0 -41.5 16.5t-16.5 40.5t16.5 40.5t41.5 16.5q24 0 40.5 -16.5t16.5 -40.5t-16.5 -40.5t-40.5 -16.5zM308 681q0 24 16.5 40.5t40.5 16.5q25 0 41.5 -16.5t16.5 -40.5t-16.5 -40.5t-41.5 -16.5q-24 0 -40.5 16.5t-16.5 40.5z
M450 123q0 -32 11 -47.5t33 -23.5l-21 -64q-82 9 -103 79q-53 -79 -157 -79q-78 0 -123 44t-45 115q0 84 60.5 129t171.5 45h81v39q0 56 -27 80t-83 24q-58 0 -142 -28l-23 67q97 36 182 36q185 0 185 -175v-241zM234 57q79 0 124 82v121h-69q-146 0 -146 -108q0 -95 91 -95
z" />
    <glyph glyph-name="uni01E0" unicode="&#x1e0;" horiz-adv-x="573" 
d="M428 973v-69h-273v69h273zM225 803q0 27 18 45t46 18q29 0 47 -18t18 -45t-18 -44.5t-47 -17.5q-28 0 -46 17.5t-18 44.5zM467 0l-52 173h-261l-52 -173h-96l221 689h120l220 -689h-100zM177 250h215l-107 360z" />
    <glyph glyph-name="uni01E1" unicode="&#x1e1;" horiz-adv-x="544" 
d="M398 837v-69h-273v69h273zM195 667q0 27 18 45t46 18q29 0 47 -18t18 -45t-18 -44.5t-47 -17.5q-28 0 -46 17.5t-18 44.5zM450 123q0 -32 11 -47.5t33 -23.5l-21 -64q-82 9 -103 79q-53 -79 -157 -79q-78 0 -123 44t-45 115q0 84 60.5 129t171.5 45h81v39q0 56 -27 80
t-83 24q-58 0 -142 -28l-23 67q97 36 182 36q185 0 185 -175v-241zM234 57q79 0 124 82v121h-69q-146 0 -146 -108q0 -95 91 -95z" />
    <glyph glyph-name="uni01E2" unicode="&#x1e2;" horiz-adv-x="816" 
d="M610 862v-69h-273v69h273zM535 76h227v-76h-304l-40 173h-268l-65 -173h-97l274 689h459l-11 -76h-309l56 -226h255v-76h-236zM179 250h221l-84 363z" />
    <glyph glyph-name="uni01E3" unicode="&#x1e3;" horiz-adv-x="849" 
d="M563 736v-69h-273v69h273zM797 279q0 -23 -2 -47h-336q12 -169 142 -169q71 0 137 46l40 -55q-84 -66 -184 -66q-127 0 -190 97q-36 -52 -81 -74.5t-107 -22.5q-79 0 -125 44t-46 115q0 84 62 129t173 45h81v39q0 56 -27 80t-83 24q-58 0 -142 -28l-23 67q98 36 182 36
q114 0 157 -84q57 84 159 84t157.5 -69t55.5 -191zM706 300v6q0 160 -124 160q-113 0 -123 -166h247zM237 57q81 0 139 92q-15 48 -15 108v3h-69q-146 0 -146 -108q0 -95 91 -95z" />
    <glyph glyph-name="uni01E4" unicode="&#x1e4;" horiz-adv-x="641" 
d="M636 247v-78h-67v-120q-104 -61 -227 -61q-135 0 -211 91t-76 266q0 166 87 261t210 95q67 0 114.5 -18.5t94.5 -57.5l-56 -58q-69 56 -151 56q-83 0 -140.5 -68t-57.5 -210q0 -145 47.5 -212t140.5 -67q74 0 131 29v74h-122v78h122v58h-122l-11 77h227v-135h67z" />
    <glyph glyph-name="uni01E5" unicode="&#x1e5;" horiz-adv-x="520" 
d="M548 -23v-63h-53q-27 -127 -244 -127q-125 0 -175.5 38.5t-50.5 121.5h83q0 -47 30 -67.5t113 -20.5q138 0 159 55h-145v63h142q-23 44 -108 44h-83q-67 0 -101.5 26.5t-34.5 68.5q0 55 58 93q-89 47 -89 146q0 81 57.5 132.5t145.5 51.5q62 -1 109 6t69.5 15t62.5 26
l27 -83q-50 -16 -154 -16q93 -42 93 -133q0 -79 -54 -129t-147 -50q-36 0 -67 10q-26 -19 -26 -49q0 -43 69 -43h84q70 0 118 -32t59 -84h53zM252 473q-52 0 -80.5 -32.5t-28.5 -85.5q0 -54 29 -86.5t82 -32.5q54 0 82.5 31.5t28.5 88.5q0 117 -113 117z" />
    <glyph glyph-name="Gcaron" unicode="&#x1e6;" horiz-adv-x="631" 
d="M482 909l39 -45l-135 -110h-61l-136 110l40 45l126 -81zM354 701q65 0 112.5 -18.5t94.5 -57.5l-56 -58q-69 56 -151 56q-83 0 -140.5 -68t-57.5 -210q0 -145 47.5 -212t140.5 -67q76 0 131 31v208h-122l-11 77h227v-333q-107 -61 -225 -61q-136 0 -212.5 91t-76.5 266
q0 167 86.5 261.5t212.5 94.5z" />
    <glyph glyph-name="gcaron" unicode="&#x1e7;" horiz-adv-x="520" 
d="M387 785l39 -45l-135 -113h-61l-136 113l40 45l126 -84zM493 586l27 -83q-50 -16 -154 -16q93 -42 93 -133q0 -79 -54 -129t-147 -50q-36 0 -67 10q-26 -19 -26 -49q0 -43 69 -43h84q80 0 130 -41t50 -105q0 -77 -63 -118.5t-184 -41.5q-125 0 -175.5 38.5t-50.5 121.5
h83q0 -47 30 -67.5t113 -20.5t118.5 20.5t35.5 61.5q0 75 -106 75h-83q-67 0 -101.5 28.5t-34.5 71.5q0 55 58 93q-89 47 -89 146q0 81 57.5 132.5t145.5 51.5q62 -1 109 6t69.5 15t62.5 26zM252 473q-52 0 -80.5 -32.5t-28.5 -85.5q0 -54 29 -86.5t82 -32.5q54 0 82.5 31.5
t28.5 88.5q0 117 -113 117z" />
    <glyph glyph-name="uni01E8" unicode="&#x1e8;" horiz-adv-x="589" 
d="M455 909l39 -45l-135 -110h-61l-136 110l40 45l126 -81zM195 689v-689h-95v689h95zM570 689l-261 -315l280 -374h-117l-272 368l262 321h108z" />
    <glyph glyph-name="uni01E9" unicode="&#x1e9;" horiz-adv-x="512" 
d="M407 959l39 -45l-135 -110h-61l-136 110l40 45l126 -81zM187 750v-750h-92v739zM490 527l-194 -233l216 -294h-110l-209 288l194 239h103z" />
    <glyph glyph-name="uni01EA" unicode="&#x1ea;" horiz-adv-x="692" 
d="M637 344q0 -137 -54 -226t-148 -117v-1q-71 -31 -97 -57.5t-26 -56.5q0 -48 56 -48q27 0 61 7l-9 -70q-35 -7 -63 -7q-57 0 -91 28.5t-34 72.5q0 73 82 121q-119 11 -189 102.5t-70 250.5q0 168 80 263t211 95q133 0 212 -93.5t79 -263.5zM346 66q190 0 190 278
q0 279 -190 279t-190 -280q0 -143 50.5 -210t139.5 -67z" />
    <glyph glyph-name="uni01EB" unicode="&#x1eb;" horiz-adv-x="584" 
d="M365 -2q-69 -30 -94 -56t-25 -56q0 -48 56 -48q27 0 61 7l-9 -70q-35 -7 -63 -7q-57 0 -91 28.5t-34 72.5q0 75 84 122q-92 13 -142.5 85.5t-50.5 186.5q0 125 62.5 200.5t173.5 75.5t172.5 -74t61.5 -201q0 -102 -42.5 -172.5t-119.5 -93.5zM156 263q0 -201 136 -201
t136 202q0 201 -135 201q-137 0 -137 -202z" />
    <glyph glyph-name="uni01EC" unicode="&#x1ec;" horiz-adv-x="692" 
d="M482 862v-69h-273v69h273zM637 344q0 -137 -54 -226t-148 -117v-1q-71 -31 -97 -57.5t-26 -56.5q0 -48 56 -48q27 0 61 7l-9 -70q-35 -7 -63 -7q-57 0 -91 28.5t-34 72.5q0 73 82 121q-119 11 -189 102.5t-70 250.5q0 168 80 263t211 95q133 0 212 -93.5t79 -263.5z
M346 66q190 0 190 278q0 279 -190 279t-190 -280q0 -143 50.5 -210t139.5 -67z" />
    <glyph glyph-name="uni01ED" unicode="&#x1ed;" horiz-adv-x="584" 
d="M428 736v-69h-273v69h273zM365 -2q-69 -30 -94 -56t-25 -56q0 -48 56 -48q27 0 61 7l-9 -70q-35 -7 -63 -7q-57 0 -91 28.5t-34 72.5q0 75 84 122q-92 13 -142.5 85.5t-50.5 186.5q0 125 62.5 200.5t173.5 75.5t172.5 -74t61.5 -201q0 -102 -42.5 -172.5t-119.5 -93.5z
M156 263q0 -201 136 -201t136 202q0 201 -135 201q-137 0 -137 -202z" />
    <glyph glyph-name="uni01EE" unicode="&#x1ee;" horiz-adv-x="516" 
d="M275 754h-61l-136 110l40 45l126 -81l127 81l39 -45zM235 397q117 0 176.5 -52t59.5 -147q0 -94 -66.5 -152t-178.5 -58q-139 0 -216 90l55 54q62 -66 158 -66q72 0 110.5 35.5t38.5 98.5q0 68 -38 98t-119 30h-88v67l208 216h-294v78h406v-77l-213 -215h1z" />
    <glyph glyph-name="uni01EF" unicode="&#x1ef;" horiz-adv-x="481" 
d="M260 627h-61l-136 113l40 45l126 -84l127 84l39 -45zM216 206q114 0 174.5 -50.5t60.5 -148.5q0 -99 -65.5 -159.5t-174.5 -60.5q-132 0 -211 90l54 50q66 -65 155 -65q70 0 106.5 37.5t36.5 109.5q0 70 -36 99.5t-120 29.5h-79v67l205 246h-291v76h396v-70l-214 -251h3z
" />
    <glyph glyph-name="uni01F0" unicode="&#x1f0;" horiz-adv-x="280" 
d="M267 785l39 -45l-135 -113h-61l-136 113l40 45l126 -84zM185 527v-495q0 -55 -9.5 -93.5t-32.5 -66t-51 -45.5t-74 -39l-27 67q39 18 58.5 34t31.5 49t12 88v501h92z" />
    <glyph glyph-name="uni01F1" unicode="&#x1f1;" horiz-adv-x="1141" 
d="M244 689q57 0 103.5 -7.5t93 -30t78 -59.5t51 -99t19.5 -145q0 -81 -19.5 -143.5t-51 -100.5t-75.5 -62t-87 -33t-91 -9h-165v689h144zM1096 689v-77l-341 -531h341l-11 -81h-436v76l344 533h-308v80h411zM265 613h-70v-538h77q35 0 64 6.5t58.5 24.5t49 47.5t32 79
t12.5 115.5q0 67 -13 116.5t-33.5 77.5t-51 44.5t-59.5 21.5t-66 5z" />
    <glyph glyph-name="uni01F2" unicode="&#x1f2;" horiz-adv-x="1071" 
d="M244 689q57 0 103.5 -7.5t93 -30t78 -59.5t51 -99t19.5 -145q0 -81 -19.5 -143.5t-51 -100.5t-75.5 -62t-87 -33t-91 -9h-165v689h144zM265 613h-70v-538h77q35 0 64 6.5t58.5 24.5t49 47.5t32 79t12.5 115.5q0 67 -13 116.5t-33.5 77.5t-51 44.5t-59.5 21.5t-66 5z
M1038 527v-70l-275 -380h278l-11 -77h-371v69l274 380h-251v78h356z" />
    <glyph glyph-name="uni01F3" unicode="&#x1f3;" horiz-adv-x="1035" 
d="M411 474v276l92 -11v-739h-81l-9 73q-55 -85 -152 -85q-94 0 -146.5 74t-52.5 199q0 123 56 200.5t151 77.5q81 0 142 -65zM727 77h278l-11 -77h-371v69l274 380h-251v78h356v-70zM281 61q42 0 72 19.5t58 58.5v258q-54 69 -122 69q-61 0 -94.5 -51t-33.5 -152
q0 -202 120 -202z" />
    <glyph glyph-name="uni01F4" unicode="&#x1f4;" horiz-adv-x="631" 
d="M435 911l40 -77l-216 -79l-24 49zM354 701q65 0 112.5 -18.5t94.5 -57.5l-56 -58q-69 56 -151 56q-83 0 -140.5 -68t-57.5 -210q0 -145 47.5 -212t140.5 -67q76 0 131 31v208h-122l-11 77h227v-333q-107 -61 -225 -61q-136 0 -212.5 91t-76.5 266q0 167 86.5 261.5
t212.5 94.5z" />
    <glyph glyph-name="uni01F5" unicode="&#x1f5;" horiz-adv-x="520" 
d="M339 801l41 -77l-212 -86l-28 49zM493 586l27 -83q-50 -16 -154 -16q93 -42 93 -133q0 -79 -54 -129t-147 -50q-36 0 -67 10q-26 -19 -26 -49q0 -43 69 -43h84q80 0 130 -41t50 -105q0 -77 -63 -118.5t-184 -41.5q-125 0 -175.5 38.5t-50.5 121.5h83q0 -47 30 -67.5
t113 -20.5t118.5 20.5t35.5 61.5q0 75 -106 75h-83q-67 0 -101.5 28.5t-34.5 71.5q0 55 58 93q-89 47 -89 146q0 81 57.5 132.5t145.5 51.5q62 -1 109 6t69.5 15t62.5 26zM252 473q-52 0 -80.5 -32.5t-28.5 -85.5q0 -54 29 -86.5t82 -32.5q54 0 82.5 31.5t28.5 88.5
q0 117 -113 117z" />
    <glyph glyph-name="uni01F6" unicode="&#x1f6;" horiz-adv-x="969" 
d="M873 527q26 -141 26 -272q0 -132 -69 -199.5t-163 -67.5q-77 0 -129.5 46.5t-52.5 128.5v160h-290v-323h-95v689h95v-288h290v288h95v-518q0 -109 91 -109q54 0 94.5 47t40.5 154q0 129 -26 264h93z" />
    <glyph glyph-name="uni01F7" unicode="&#x1f7;" horiz-adv-x="581" 
d="M355 701q82 0 138 -51t56 -140q0 -54 -20.5 -97.5t-61 -76.5t-83 -55.5t-102.5 -45.5l-87 -34v-201h-95v689h95v-52q67 64 160 64zM278 313q170 69 170 198q0 55 -29 83.5t-82 28.5q-83 0 -142 -60v-284z" />
    <glyph glyph-name="uni01F8" unicode="&#x1f8;" horiz-adv-x="683" 
d="M262 911l201 -107l-24 -49l-216 79zM583 689v-689h-127l-280 585q13 -148 13 -269v-316h-89v689h124l283 -586q-13 104 -13 210v376h89z" />
    <glyph glyph-name="uni01F9" unicode="&#x1f9;" horiz-adv-x="586" 
d="M428 687l-28 -49l-212 86l41 77zM343 539q72 0 112.5 -43t40.5 -118v-378h-92v365q0 56 -21 79t-62 23q-76 0 -134 -93v-374h-92v527h79l8 -78q60 90 161 90z" />
    <glyph glyph-name="Aringacute" unicode="&#x1fa;" horiz-adv-x="573" 
d="M408 1027l-216 -79l-24 49l200 107zM172 836q0 45 32 75.5t82 30.5t82 -30.5t32 -75.5t-32 -75.5t-82 -30.5t-82 30.5t-32 75.5zM339 836q0 26 -14 41t-39 15t-39 -15t-14 -41t14 -41t39 -15q24 0 38.5 15t14.5 41zM467 0l-52 173h-261l-52 -173h-96l221 689h120
l220 -689h-100zM177 250h215l-107 360z" />
    <glyph glyph-name="aringacute" unicode="&#x1fb;" horiz-adv-x="544" 
d="M381 881l-216 -79l-24 49l200 107zM147 690q0 45 32 75.5t82 30.5t82 -30.5t32 -75.5t-32 -75.5t-82 -30.5t-82 30.5t-32 75.5zM314 690q0 26 -14 41t-39 15t-39 -15t-14 -41t14 -41t39 -15q24 0 38.5 15t14.5 41zM450 123q0 -32 11 -47.5t33 -23.5l-21 -64
q-82 9 -103 79q-53 -79 -157 -79q-78 0 -123 44t-45 115q0 84 60.5 129t171.5 45h81v39q0 56 -27 80t-83 24q-58 0 -142 -28l-23 67q97 36 182 36q185 0 185 -175v-241zM234 57q79 0 124 82v121h-69q-146 0 -146 -108q0 -95 91 -95z" />
    <glyph glyph-name="AEacute" unicode="&#x1fc;" horiz-adv-x="816" 
d="M594 834l-216 -79l-24 49l200 107zM535 76h227v-76h-304l-40 173h-268l-65 -173h-97l274 689h459l-11 -76h-309l56 -226h255v-76h-236zM179 250h221l-84 363z" />
    <glyph glyph-name="aeacute" unicode="&#x1fd;" horiz-adv-x="849" 
d="M547 724l-212 -86l-28 49l199 114zM797 279q0 -23 -2 -47h-336q12 -169 142 -169q71 0 137 46l40 -55q-84 -66 -184 -66q-127 0 -190 97q-36 -52 -81 -74.5t-107 -22.5q-79 0 -125 44t-46 115q0 84 62 129t173 45h81v39q0 56 -27 80t-83 24q-58 0 -142 -28l-23 67
q98 36 182 36q114 0 157 -84q57 84 159 84t157.5 -69t55.5 -191zM706 300v6q0 160 -124 160q-113 0 -123 -166h247zM237 57q81 0 139 92q-15 48 -15 108v3h-69q-146 0 -146 -108q0 -95 91 -95z" />
    <glyph glyph-name="Oslashacute" unicode="&#x1fe;" horiz-adv-x="692" 
d="M461 849l-216 -79l-24 49l200 107zM486 667q72 -39 111.5 -121.5t39.5 -201.5q0 -168 -79.5 -262t-211.5 -94q-36 0 -67 7l-35 -122l-79 21l40 128q-71 40 -110.5 121.5t-39.5 199.5q0 168 80 263t211 95q37 0 66 -7l37 125l79 -21zM346 623q-190 0 -190 -280
q0 -185 82 -246l158 521q-27 5 -50 5zM346 66q190 0 190 278q0 191 -84 250l-156 -523q25 -5 50 -5z" />
    <glyph glyph-name="oslashacute" unicode="&#x1ff;" horiz-adv-x="584" 
d="M412 724l-212 -86l-28 49l199 114zM416 508q111 -68 111 -244q0 -124 -62.5 -200t-172.5 -76q-24 0 -51 5l-39 -123l-75 22l42 127q-112 68 -112 244q0 125 62.5 200.5t173.5 75.5q24 0 51 -5l39 122l75 -22zM293 465q-137 0 -137 -202q0 -129 48 -174l124 373
q-17 3 -35 3zM292 62q136 0 136 202q0 129 -47 173l-123 -372q15 -3 34 -3z" />
    <glyph glyph-name="uni0200" unicode="&#x200;" horiz-adv-x="573" 
d="M251 785l-58 -25l-106 157l78 41zM393 790l-58 -25l-96 152l78 41zM467 0l-52 173h-261l-52 -173h-96l221 689h120l220 -689h-100zM177 250h215l-107 360z" />
    <glyph glyph-name="uni0201" unicode="&#x201;" horiz-adv-x="544" 
d="M232 659l-58 -25l-106 157l78 41zM374 664l-58 -25l-96 152l78 41zM450 123q0 -32 11 -47.5t33 -23.5l-21 -64q-82 9 -103 79q-53 -79 -157 -79q-78 0 -123 44t-45 115q0 84 60.5 129t171.5 45h81v39q0 56 -27 80t-83 24q-58 0 -142 -28l-23 67q97 36 182 36
q185 0 185 -175v-241zM234 57q79 0 124 82v121h-69q-146 0 -146 -108q0 -95 91 -95z" />
    <glyph glyph-name="uni0202" unicode="&#x202;" horiz-adv-x="573" 
d="M285 852q-68 0 -89 -76l-61 13q6 62 47.5 97.5t102.5 35.5q62 0 104.5 -35.5t48.5 -97.5l-61 -13q-21 76 -92 76zM467 0l-52 173h-261l-52 -173h-96l221 689h120l220 -689h-100zM177 250h215l-107 360z" />
    <glyph glyph-name="uni0203" unicode="&#x203;" horiz-adv-x="544" 
d="M259 690q-68 0 -89 -76l-61 13q6 62 47.5 97.5t102.5 35.5q62 0 104.5 -35.5t48.5 -97.5l-61 -13q-21 76 -92 76zM450 123q0 -32 11 -47.5t33 -23.5l-21 -64q-82 9 -103 79q-53 -79 -157 -79q-78 0 -123 44t-45 115q0 84 60.5 129t171.5 45h81v39q0 56 -27 80t-83 24
q-58 0 -142 -28l-23 67q97 36 182 36q185 0 185 -175v-241zM234 57q79 0 124 82v121h-69q-146 0 -146 -108q0 -95 91 -95z" />
    <glyph glyph-name="uni0204" unicode="&#x204;" horiz-adv-x="535" 
d="M168 958l86 -173l-58 -25l-106 157zM320 958l76 -168l-58 -25l-96 152zM473 689l-11 -76h-267v-225h232v-76h-232v-236h286v-76h-381v689h373z" />
    <glyph glyph-name="uni0205" unicode="&#x205;" horiz-adv-x="545" 
d="M250 659l-58 -25l-106 157l78 41zM392 664l-58 -25l-96 152l78 41zM493 279q0 -23 -2 -47h-336q12 -169 142 -169q71 0 137 46l40 -55q-84 -66 -184 -66q-110 0 -171.5 72t-61.5 198q0 125 59 203t160 78q105 0 161 -69t56 -191zM402 300v6q0 160 -124 160
q-113 0 -123 -166h247z" />
    <glyph glyph-name="uni0206" unicode="&#x206;" horiz-adv-x="535" 
d="M288 922q62 0 104.5 -35.5t48.5 -97.5l-61 -13q-21 76 -92 76q-68 0 -89 -76l-61 13q6 62 47.5 97.5t102.5 35.5zM473 689l-11 -76h-267v-225h232v-76h-232v-236h286v-76h-381v689h373z" />
    <glyph glyph-name="uni0207" unicode="&#x207;" horiz-adv-x="545" 
d="M277 690q-68 0 -89 -76l-61 13q6 62 47.5 97.5t102.5 35.5q62 0 104.5 -35.5t48.5 -97.5l-61 -13q-21 76 -92 76zM493 279q0 -23 -2 -47h-336q12 -169 142 -169q71 0 137 46l40 -55q-84 -66 -184 -66q-110 0 -171.5 72t-61.5 198q0 125 59 203t160 78q105 0 161 -69
t56 -191zM402 300v6q0 160 -124 160q-113 0 -123 -166h247z" />
    <glyph glyph-name="uni0208" unicode="&#x208;" horiz-adv-x="295" 
d="M25 958l86 -173l-58 -25l-106 157zM177 958l76 -168l-58 -25l-96 152zM195 689v-689h-95v689h95z" />
    <glyph glyph-name="uni0209" unicode="&#x209;" horiz-adv-x="282" 
d="M26 832l86 -173l-58 -25l-106 157zM178 832l76 -168l-58 -25l-96 152zM187 527v-527h-92v527h92z" />
    <glyph glyph-name="uni020A" unicode="&#x20a;" horiz-adv-x="295" 
d="M145 922q62 0 104.5 -35.5t48.5 -97.5l-61 -13q-21 76 -92 76q-68 0 -89 -76l-61 13q6 62 47.5 97.5t102.5 35.5zM195 689v-689h-95v689h95z" />
    <glyph glyph-name="uni020B" unicode="&#x20b;" horiz-adv-x="282" 
d="M139 760q62 0 104.5 -35.5t48.5 -97.5l-61 -13q-21 76 -92 76q-68 0 -89 -76l-61 13q6 62 47.5 97.5t102.5 35.5zM187 527v-527h-92v527h92z" />
    <glyph glyph-name="uni020C" unicode="&#x20c;" horiz-adv-x="692" 
d="M224 958l86 -173l-58 -25l-106 157zM376 958l76 -168l-58 -25l-96 152zM346 701q133 0 212 -93.5t79 -263.5q0 -168 -79.5 -262t-211.5 -94t-211.5 93t-79.5 262q0 168 80 263t211 95zM346 623q-190 0 -190 -280q0 -143 50.5 -210t139.5 -67q190 0 190 278
q0 279 -190 279z" />
    <glyph glyph-name="uni020D" unicode="&#x20d;" horiz-adv-x="584" 
d="M177 832l86 -173l-58 -25l-106 157zM329 832l76 -168l-58 -25l-96 152zM293 539q111 0 172.5 -74t61.5 -201q0 -124 -62.5 -200t-172.5 -76q-111 0 -173 74t-62 201q0 125 62.5 200.5t173.5 75.5zM293 465q-137 0 -137 -202q0 -201 136 -201t136 202q0 201 -135 201z" />
    <glyph glyph-name="uni020E" unicode="&#x20e;" horiz-adv-x="692" 
d="M344 922q62 0 104.5 -35.5t48.5 -97.5l-61 -13q-21 76 -92 76q-68 0 -89 -76l-61 13q6 62 47.5 97.5t102.5 35.5zM346 701q133 0 212 -93.5t79 -263.5q0 -168 -79.5 -262t-211.5 -94t-211.5 93t-79.5 262q0 168 80 263t211 95zM346 623q-190 0 -190 -280
q0 -143 50.5 -210t139.5 -67q190 0 190 278q0 279 -190 279z" />
    <glyph glyph-name="uni020F" unicode="&#x20f;" horiz-adv-x="584" 
d="M290 760q62 0 104.5 -35.5t48.5 -97.5l-61 -13q-21 76 -92 76q-68 0 -89 -76l-61 13q6 62 47.5 97.5t102.5 35.5zM293 539q111 0 172.5 -74t61.5 -201q0 -124 -62.5 -200t-172.5 -76q-111 0 -173 74t-62 201q0 125 62.5 200.5t173.5 75.5zM293 465q-137 0 -137 -202
q0 -201 136 -201t136 202q0 201 -135 201z" />
    <glyph glyph-name="uni0210" unicode="&#x210;" horiz-adv-x="605" 
d="M263 785l-58 -25l-106 157l78 41zM405 790l-58 -25l-96 152l78 41zM467 0l-165 292h-107v-292h-95v689h181q262 0 262 -195q0 -140 -149 -185l186 -309h-113zM195 365h96q151 0 151 129q0 64 -38.5 92.5t-123.5 28.5h-85v-250z" />
    <glyph glyph-name="uni0211" unicode="&#x211;" horiz-adv-x="386" 
d="M209 659l-58 -25l-106 157l78 41zM351 664l-58 -25l-96 152l78 41zM324 539q28 0 52 -6l-17 -90q-24 6 -46 6q-49 0 -79 -36t-47 -112v-301h-92v527h79l9 -107q42 119 141 119z" />
    <glyph glyph-name="uni0212" unicode="&#x212;" horiz-adv-x="605" 
d="M297 852q-68 0 -89 -76l-61 13q6 62 47.5 97.5t102.5 35.5q62 0 104.5 -35.5t48.5 -97.5l-61 -13q-21 76 -92 76zM467 0l-165 292h-107v-292h-95v689h181q262 0 262 -195q0 -140 -149 -185l186 -309h-113zM195 365h96q151 0 151 129q0 64 -38.5 92.5t-123.5 28.5h-85
v-250z" />
    <glyph glyph-name="uni0213" unicode="&#x213;" horiz-adv-x="386" 
d="M236 690q-68 0 -89 -76l-61 13q6 62 47.5 97.5t102.5 35.5q62 0 104.5 -35.5t48.5 -97.5l-61 -13q-21 76 -92 76zM183 420q42 119 141 119q28 0 52 -6l-17 -90q-24 6 -46 6q-49 0 -79 -36t-47 -112v-301h-92v527h79z" />
    <glyph glyph-name="uni0214" unicode="&#x214;" horiz-adv-x="662" 
d="M209 958l86 -173l-58 -25l-106 157zM361 958l76 -168l-58 -25l-96 152zM572 689v-468q0 -105 -64 -169t-178 -64q-115 0 -177.5 63.5t-62.5 169.5v468h95v-461q0 -160 145 -160q146 0 146 160v461h96z" />
    <glyph glyph-name="uni0215" unicode="&#x215;" horiz-adv-x="582" 
d="M174 832l86 -173l-58 -25l-106 157zM326 832l76 -168l-58 -25l-96 152zM487 527v-527h-79l-7 82q-59 -94 -164 -94q-69 0 -108 42t-39 119v378h92v-368q0 -54 19 -76.5t62 -22.5q77 0 132 91v376h92z" />
    <glyph glyph-name="uni0216" unicode="&#x216;" horiz-adv-x="662" 
d="M329 922q62 0 104.5 -35.5t48.5 -97.5l-61 -13q-21 76 -92 76q-68 0 -89 -76l-61 13q6 62 47.5 97.5t102.5 35.5zM572 689v-468q0 -105 -64 -169t-178 -64q-115 0 -177.5 63.5t-62.5 169.5v468h95v-461q0 -160 145 -160q146 0 146 160v461h96z" />
    <glyph glyph-name="uni0217" unicode="&#x217;" horiz-adv-x="582" 
d="M287 760q62 0 104.5 -35.5t48.5 -97.5l-61 -13q-21 76 -92 76q-68 0 -89 -76l-61 13q6 62 47.5 97.5t102.5 35.5zM487 527v-527h-79l-7 82q-59 -94 -164 -94q-69 0 -108 42t-39 119v378h92v-368q0 -54 19 -76.5t62 -22.5q77 0 132 91v376h92z" />
    <glyph glyph-name="Scommaaccent" unicode="&#x218;" horiz-adv-x="545" 
d="M270 701q124 0 213 -80l-52 -58q-74 60 -157 60q-54 0 -89 -25t-35 -73q0 -45 30 -70.5t121 -53.5q48 -15 79.5 -29t62.5 -38t46.5 -59t15.5 -83q0 -92 -66 -148t-180 -56q-143 0 -234 89l52 58q85 -69 181 -69q64 0 106 31.5t42 91.5q0 51 -31 78.5t-118 54.5
q-106 32 -155 77t-49 122q0 79 61 129.5t156 50.5zM270 -77q24 0 40.5 -16t16.5 -40q0 -23 -26 -77l-41 -86h-53l29 116q-24 21 -24 47q0 24 17 40t41 16z" />
    <glyph glyph-name="scommaaccent" unicode="&#x219;" horiz-adv-x="467" 
d="M238 539q100 0 179 -60l-39 -58q-70 45 -137 45q-45 0 -71 -18.5t-26 -50.5t24.5 -50t88.5 -35q88 -22 131.5 -60t43.5 -104q0 -78 -60.5 -119t-147.5 -41q-120 0 -199 69l49 56q67 -51 148 -51q52 0 82.5 21.5t30.5 58.5q0 39 -25.5 59t-102.5 40q-84 22 -121.5 59
t-37.5 94q0 63 54 104t136 41zM238 -77q24 0 40.5 -16t16.5 -40q0 -23 -26 -77l-41 -86h-53l29 116q-24 21 -24 47q0 24 17 40t41 16z" />
    <glyph glyph-name="uni021A" unicode="&#x21a;" horiz-adv-x="517" 
d="M507 689l-10 -81h-191v-608h-95v608h-196v81h492zM262 -77q24 0 40.5 -16t16.5 -40q0 -23 -26 -77l-41 -86h-53l29 116q-24 21 -24 47q0 24 17 40t41 16z" />
    <glyph glyph-name="uni021B" unicode="&#x21b;" horiz-adv-x="361" 
d="M361 24q-53 -36 -118 -36q-67 0 -104.5 38.5t-37.5 111.5v318h-92v71h92v119l92 11v-130h125l-10 -71h-115v-314q0 -41 14.5 -59.5t48.5 -18.5q31 0 70 21zM237 -77q24 0 40.5 -16t16.5 -40q0 -23 -26 -77l-41 -86h-53l29 116q-24 21 -24 47q0 24 17 40t41 16z" />
    <glyph glyph-name="uni021C" unicode="&#x21c;" horiz-adv-x="504" 
d="M228 701q100 0 154 -51t54 -131q0 -130 -135 -160q69 -7 113.5 -47.5t44.5 -115.5q0 -106 -96 -184t-296 -114l-9 80q167 35 233 89t66 130q0 118 -152 118h-66l13 78h54q60 0 95.5 31.5t35.5 87.5q0 50 -29 80.5t-88 30.5q-82 0 -160 -64l-50 57q96 85 218 85z" />
    <glyph glyph-name="uni021D" unicode="&#x21d;" horiz-adv-x="480" 
d="M204 539q80 0 135.5 -38.5t55.5 -108.5q0 -48 -25 -76.5t-81 -43.5q63 -1 98.5 -32t35.5 -82q0 -87 -93.5 -154.5t-263.5 -105.5l-13 67q141 42 206 86t65 104q0 41 -24.5 57.5t-73.5 16.5h-100l6 72h59q109 0 109 86q0 80 -105 80q-70 0 -136 -42l-44 54q80 60 189 60z
" />
    <glyph glyph-name="uni021E" unicode="&#x21e;" horiz-adv-x="680" 
d="M467 909l39 -45l-135 -110h-61l-136 110l40 45l126 -81zM485 0v323h-290v-323h-95v689h95v-288h290v288h95v-689h-95z" />
    <glyph glyph-name="uni021F" unicode="&#x21f;" horiz-adv-x="586" 
d="M323 804h-61l-136 110l40 45l126 -81l127 81l39 -45zM343 539q72 0 112.5 -43t40.5 -118v-378h-92v365q0 56 -21.5 79t-62.5 23q-74 0 -133 -92v-375h-92v738l92 10v-294q62 85 156 85z" />
    <glyph glyph-name="uni0220" unicode="&#x220;" horiz-adv-x="672" 
d="M394 701q92 0 138.5 -53.5t46.5 -140.5v-709h-95v690q0 68 -26.5 101.5t-83.5 33.5q-55 0 -93.5 -22.5t-85.5 -70.5v-530h-95v689h82l8 -83q90 95 204 95z" />
    <glyph glyph-name="uni0221" unicode="&#x221;" horiz-adv-x="738" 
d="M649 224q49 0 79 -28.5t30 -74.5q0 -61 -47 -97t-124 -36q-34 0 -62 8l-32 -71l-59 25l34 73q-33 25 -47 63q-53 -98 -160 -98q-94 0 -146.5 74t-52.5 199q0 123 56 200.5t151 77.5q81 0 142 -65v276l92 -11v-599q0 -24 4 -37l1 3q25 60 58 89t83 29zM281 61
q42 0 72 19.5t58 59.5v10v247q-54 69 -122 69q-61 0 -94.5 -51t-33.5 -152q0 -202 120 -202zM587 66q90 0 90 55q0 36 -36 36q-24 0 -41.5 -19t-41.5 -71q8 -1 29 -1z" />
    <glyph glyph-name="uni0222" unicode="&#x222;" horiz-adv-x="652" 
d="M462 390q66 -23 100.5 -70t34.5 -111q0 -90 -73.5 -155.5t-197.5 -65.5t-197.5 64.5t-73.5 155.5q0 61 35 108t99 72q-89 50 -89 158v143h95v-138q0 -130 132 -130q69 0 100.5 37t31.5 93v138h96v-143q0 -103 -93 -156zM326 66q170 0 170 143q0 134 -170 134
q-85 0 -127.5 -35t-42.5 -100q0 -142 170 -142z" />
    <glyph glyph-name="uni0223" unicode="&#x223;" horiz-adv-x="578" 
d="M395 408q126 -45 126 -193q0 -95 -63 -161t-169 -66t-169 65t-63 161q0 70 33 119.5t93 72.5q-88 45 -88 141v192h92v-192q0 -110 103 -110t103 110v192h92v-192q0 -92 -90 -139zM289 62q68 0 100.5 37t32.5 116q0 151 -133 151t-133 -152t133 -152z" />
    <glyph glyph-name="uni0224" unicode="&#x224;" horiz-adv-x="522" 
d="M477 689v-77l-341 -531h335v-138q0 -76 -40 -116t-111 -40q-65 0 -115 38l36 61q38 -23 76 -23q62 0 62 74v63h-349v76l344 533h-308v80h411z" />
    <glyph glyph-name="uni0225" unicode="&#x225;" horiz-adv-x="434" 
d="M404 527v-70l-275 -380h273v-134q0 -76 -40.5 -116t-110.5 -40q-65 0 -115 38l36 58q39 -22 74 -22q67 0 67 74v65h-288v69l274 380h-251v78h356z" />
    <glyph glyph-name="uni0226" unicode="&#x226;" horiz-adv-x="573" 
d="M286 781q-28 0 -46 17.5t-18 44.5t18 45t46 18q29 0 47 -18t18 -45t-18 -44.5t-47 -17.5zM467 0l-52 173h-261l-52 -173h-96l221 689h120l220 -689h-100zM177 250h215l-107 360z" />
    <glyph glyph-name="uni0227" unicode="&#x227;" horiz-adv-x="544" 
d="M260 655q-28 0 -46 17.5t-18 44.5t18 45t46 18q29 0 47 -18t18 -45t-18 -44.5t-47 -17.5zM450 123q0 -32 11 -47.5t33 -23.5l-21 -64q-82 9 -103 79q-53 -79 -157 -79q-78 0 -123 44t-45 115q0 84 60.5 129t171.5 45h81v39q0 56 -27 80t-83 24q-58 0 -142 -28l-23 67
q97 36 182 36q185 0 185 -175v-241zM234 57q79 0 124 82v121h-69q-146 0 -146 -108q0 -95 91 -95z" />
    <glyph glyph-name="uni0228" unicode="&#x228;" horiz-adv-x="535" 
d="M481 0h-160v-56q48 -4 70.5 -27.5t22.5 -57.5q0 -48 -35 -74t-89 -26q-59 0 -91 24l25 52q30 -16 63 -16q50 0 50 40q0 42 -89 42l12 99h-160v689h373l-11 -76h-267v-225h232v-76h-232v-236h286v-76z" />
    <glyph glyph-name="uni0229" unicode="&#x229;" horiz-adv-x="545" 
d="M493 279q0 -23 -2 -47h-336q12 -169 142 -169q71 0 137 46l40 -55q-71 -57 -157 -65v-45q48 -4 70.5 -27.5t22.5 -57.5q0 -48 -35 -74t-89 -26q-59 0 -91 24l25 52q30 -16 63 -16q50 0 50 40q0 42 -89 42l11 89q-94 11 -146 82t-52 186q0 125 59 203t160 78
q105 0 161 -69t56 -191zM402 300v6q0 160 -124 160q-113 0 -123 -166h247z" />
    <glyph glyph-name="uni022A" unicode="&#x22a;" horiz-adv-x="692" 
d="M484 903h-273v69h273v-69zM241 860q24 0 40.5 -16.5t16.5 -40.5t-16.5 -40.5t-40.5 -16.5q-25 0 -41.5 16.5t-16.5 40.5t16.5 40.5t41.5 16.5zM450 860q25 0 41.5 -16.5t16.5 -40.5t-16.5 -40.5t-41.5 -16.5q-24 0 -40.5 16.5t-16.5 40.5t16.5 40.5t40.5 16.5zM346 701
q133 0 212 -93.5t79 -263.5q0 -168 -79.5 -262t-211.5 -94t-211.5 93t-79.5 262q0 168 80 263t211 95zM346 623q-190 0 -190 -280q0 -143 50.5 -210t139.5 -67q190 0 190 278q0 279 -190 279z" />
    <glyph glyph-name="uni022B" unicode="&#x22b;" horiz-adv-x="584" 
d="M428 791h-273v69h273v-69zM187 738q24 0 40.5 -16.5t16.5 -40.5t-16.5 -40.5t-40.5 -16.5q-25 0 -41.5 16.5t-16.5 40.5t16.5 40.5t41.5 16.5zM396 738q25 0 41.5 -16.5t16.5 -40.5t-16.5 -40.5t-41.5 -16.5q-24 0 -40.5 16.5t-16.5 40.5t16.5 40.5t40.5 16.5zM293 539
q111 0 172.5 -74t61.5 -201q0 -124 -62.5 -200t-172.5 -76q-111 0 -173 74t-62 201q0 125 62.5 200.5t173.5 75.5zM293 465q-137 0 -137 -202q0 -201 136 -201t136 202q0 201 -135 201z" />
    <glyph glyph-name="uni022C" unicode="&#x22c;" horiz-adv-x="692" 
d="M482 911h-273v69h273v-69zM404 758q-29 0 -64.5 24t-51.5 24q-28 0 -53 -46l-56 28q41 88 109 88q30 0 65 -24t51 -24q27 0 53 44l56 -28q-39 -86 -109 -86zM346 701q133 0 212 -93.5t79 -263.5q0 -168 -79.5 -262t-211.5 -94t-211.5 93t-79.5 262q0 168 80 263t211 95z
M346 623q-190 0 -190 -280q0 -143 50.5 -210t139.5 -67q190 0 190 278q0 279 -190 279z" />
    <glyph glyph-name="uni022D" unicode="&#x22d;" horiz-adv-x="584" 
d="M428 749h-273v69h273v-69zM350 596q-29 0 -64.5 24t-51.5 24q-28 0 -53 -46l-56 28q41 88 109 88q30 0 65 -24t51 -24q27 0 53 44l56 -28q-39 -86 -109 -86zM293 539q111 0 172.5 -74t61.5 -201q0 -124 -62.5 -200t-172.5 -76q-111 0 -173 74t-62 201q0 125 62.5 200.5
t173.5 75.5zM293 465q-137 0 -137 -202q0 -201 136 -201t136 202q0 201 -135 201z" />
    <glyph glyph-name="uni022E" unicode="&#x22e;" horiz-adv-x="692" 
d="M345 906q29 0 47 -18t18 -45t-18 -44.5t-47 -17.5q-28 0 -46 17.5t-18 44.5t18 45t46 18zM346 701q133 0 212 -93.5t79 -263.5q0 -168 -79.5 -262t-211.5 -94t-211.5 93t-79.5 262q0 168 80 263t211 95zM346 623q-190 0 -190 -280q0 -143 50.5 -210t139.5 -67
q190 0 190 278q0 279 -190 279z" />
    <glyph glyph-name="uni022F" unicode="&#x22f;" horiz-adv-x="584" 
d="M291 780q29 0 47 -18t18 -45t-18 -44.5t-47 -17.5q-28 0 -46 17.5t-18 44.5t18 45t46 18zM293 539q111 0 172.5 -74t61.5 -201q0 -124 -62.5 -200t-172.5 -76q-111 0 -173 74t-62 201q0 125 62.5 200.5t173.5 75.5zM293 465q-137 0 -137 -202q0 -201 136 -201t136 202
q0 201 -135 201z" />
    <glyph glyph-name="uni0230" unicode="&#x230;" horiz-adv-x="692" 
d="M487 904h-273v69h273v-69zM348 866q29 0 47 -18t18 -45t-18 -44.5t-47 -17.5q-28 0 -46 17.5t-18 44.5t18 45t46 18zM346 701q133 0 212 -93.5t79 -263.5q0 -168 -79.5 -262t-211.5 -94t-211.5 93t-79.5 262q0 168 80 263t211 95zM346 623q-190 0 -190 -280
q0 -143 50.5 -210t139.5 -67q190 0 190 278q0 279 -190 279z" />
    <glyph glyph-name="uni0231" unicode="&#x231;" horiz-adv-x="584" 
d="M429 768h-273v69h273v-69zM290 730q29 0 47 -18t18 -45t-18 -44.5t-47 -17.5q-28 0 -46 17.5t-18 44.5t18 45t46 18zM293 539q111 0 172.5 -74t61.5 -201q0 -124 -62.5 -200t-172.5 -76q-111 0 -173 74t-62 201q0 125 62.5 200.5t173.5 75.5zM293 465q-137 0 -137 -202
q0 -201 136 -201t136 202q0 201 -135 201z" />
    <glyph glyph-name="uni0232" unicode="&#x232;" horiz-adv-x="550" 
d="M411 793h-273v69h273v-69zM545 689l-222 -424v-265h-96v264l-222 425h105l168 -341l168 341h99z" />
    <glyph glyph-name="uni0233" unicode="&#x233;" horiz-adv-x="492" 
d="M382 667h-273v69h273v-69zM482 527l-176 -530q-31 -92 -86.5 -145.5t-158.5 -64.5l-10 72q76 13 109.5 43.5t57.5 97.5h-31l-177 527h98l141 -460l138 460h95z" />
    <glyph glyph-name="uni0234" unicode="&#x234;" horiz-adv-x="417" 
d="M328 224q49 0 79 -28.5t30 -74.5q0 -61 -47 -97t-124 -36q-34 0 -62 8l-32 -71l-59 25l34 73q-57 43 -57 127v589l92 11v-610q0 -24 4 -37l1 3q25 60 58 89t83 29zM266 66q90 0 90 55q0 36 -36 36q-24 0 -41.5 -19t-41.5 -71q8 -1 29 -1z" />
    <glyph glyph-name="uni0235" unicode="&#x235;" horiz-adv-x="731" 
d="M642 224q49 0 79 -28.5t30 -74.5q0 -61 -47 -97t-124 -36q-34 0 -62 8l-32 -71l-59 25l34 73q-57 43 -57 127v215q0 56 -21 79t-62 23q-76 0 -134 -93v-374h-92v527h79l8 -78q60 90 161 90q72 0 112.5 -43t40.5 -118v-238q0 -24 4 -37l1 3q25 60 58 89t83 29zM580 66
q90 0 90 55q0 36 -36 36q-24 0 -41.5 -19t-41.5 -71q8 -1 29 -1z" />
    <glyph glyph-name="uni0236" unicode="&#x236;" horiz-adv-x="428" 
d="M339 224q49 0 79 -28.5t30 -74.5q0 -61 -47 -97t-124 -36q-34 0 -63 7l-31 -70l-59 25l33 70q-56 41 -56 130v306h-92v71h92v119l92 11v-130h125l-10 -71h-115v-316q0 -24 4 -37l1 3q25 60 58 89t83 29zM277 66q90 0 90 55q0 36 -36 36q-24 0 -41.5 -19t-41.5 -71
q8 -1 29 -1z" />
    <glyph glyph-name="uni0237" unicode="&#x237;" horiz-adv-x="280" 
d="M185 527v-495q0 -55 -9.5 -93.5t-32.5 -66t-51 -45.5t-74 -39l-27 67q39 18 58.5 34t31.5 49t12 88v501h92z" />
    <glyph glyph-name="uni0238" unicode="&#x238;" horiz-adv-x="870" 
d="M624 539q83 0 133.5 -72.5t50.5 -202.5q0 -124 -54.5 -200t-142.5 -76q-80 0 -129 83l-10 -71h-70l-9 73q-55 -85 -142 -85q-88 0 -138.5 74.5t-50.5 198.5q0 122 53.5 200t141.5 78q79 0 134 -76v276l92 11v-289q56 78 141 78zM271 61q64 0 120 78v250q-51 77 -116 77
q-52 0 -83 -51.5t-31 -151.5q0 -101 29.5 -151.5t80.5 -50.5zM596 61q49 0 81 50.5t32 152.5q0 202 -109 202q-64 0 -117 -78v-241q27 -46 50 -66t63 -20z" />
    <glyph glyph-name="uni0239" unicode="&#x239;" horiz-adv-x="870" 
d="M623 539q93 0 139 -73t46 -202q0 -123 -52.5 -199.5t-144.5 -76.5q-77 0 -128 75v-265l-92 -11v283q-55 -82 -140 -82q-88 0 -138.5 74.5t-50.5 198.5q0 122 55 200t147 78q81 0 133 -79l7 67h66l7 -71q60 83 146 83zM271 61q64 0 120 78v243q-49 84 -115 84
q-52 0 -83.5 -52t-31.5 -151q0 -101 29.5 -151.5t80.5 -50.5zM589 63q57 0 88.5 50t31.5 151q0 202 -107 202q-66 0 -119 -82v-244q40 -77 106 -77z" />
    <glyph glyph-name="uni023A" unicode="&#x23a;" horiz-adv-x="573" 
d="M470 0l-52 173h-139l-65 -243l-45 11l62 232h-80l-52 -173h-93l221 689h120l11 -36l26 97l45 -11l-44 -167l182 -572h-97zM173 247h77l69 259l-34 114zM298 247h98l-52 174z" />
    <glyph glyph-name="uni023B" unicode="&#x23b;" 
d="M493 125l47 -60q-75 -77 -197 -77q-40 0 -76 9l-18 -67l-45 11l19 72q-79 36 -123.5 121t-44.5 211q0 168 81.5 262t204.5 94q32 0 64 -5l14 54l45 -11l-15 -56q39 -14 83 -50l-52 -61q-26 21 -52 33l-140 -528q27 -9 58 -9q70 0 147 57zM156 345q0 -183 90 -247l138 522
q-18 3 -37 3q-86 0 -138.5 -66t-52.5 -212z" />
    <glyph glyph-name="uni023C" unicode="&#x23c;" horiz-adv-x="478" 
d="M291 66q53 0 115 40l42 -60q-72 -58 -161 -58q-35 0 -62 7l-18 -65l-43 11l19 69q-60 29 -93 93t-33 156q0 127 62 203.5t168 76.5q21 0 40 -3l16 59l43 -11l-16 -57q44 -16 78 -45l-44 -58q-29 21 -54 29l-104 -380q20 -7 45 -7zM156 261q0 -118 50 -165l101 366
q-5 1 -16 1q-64 0 -99.5 -51t-35.5 -151z" />
    <glyph glyph-name="uni023D" unicode="&#x23d;" horiz-adv-x="504" 
d="M201 83h283l-11 -83h-367v324h-91v78h91v287h95v-287h97v-78h-97v-241z" />
    <glyph glyph-name="uni023E" unicode="&#x23e;" horiz-adv-x="517" 
d="M497 608h-101l-91 -235v-373h-93v134l-79 -204l-44 17l123 317v344h-197v81h362l26 67l44 -17l-19 -50h79zM305 504l41 104h-41v-104z" />
    <glyph glyph-name="uni023F" unicode="&#x23f;" horiz-adv-x="470" 
d="M404 -123l31 -60q-39 -30 -97 -30q-38 0 -66.5 18t-51 49l-45 65t-60.5 72.5t-85 65.5l38 56q77 -51 159 -51q51 0 79.5 19.5t28.5 57.5q0 41 -25.5 61.5t-102.5 40.5q-84 22 -121.5 59.5t-37.5 94.5q0 62 54 103t136 41q100 0 179 -60l-39 -58q-70 45 -137 45
q-45 0 -71 -18.5t-26 -50.5t24.5 -50t88.5 -35q88 -22 131.5 -60t43.5 -104q0 -76 -59.5 -118t-130.5 -42q-15 0 -33 3q25 -23 49 -58.5t42 -53t46 -17.5q30 0 58 15z" />
    <glyph glyph-name="uni0240" unicode="&#x240;" horiz-adv-x="405" 
d="M358 -213q-43 0 -74.5 20t-53 49l-45.5 59t-64.5 54.5t-95.5 30.5v69l274 380h-251v78h356v-70l-290 -400q42 -11 75.5 -35.5t53 -51l37.5 -51.5t39 -41t47 -16q30 0 58 15l31 -60q-39 -30 -97 -30z" />
    <glyph glyph-name="uni0241" unicode="&#x241;" horiz-adv-x="466" 
d="M150 0v319l72 19q62 17 93 50.5t31 98.5q0 63 -33 99.5t-93 36.5q-83 0 -158 -64l-52 57q97 85 214 85q101 0 161.5 -58t60.5 -151q0 -50 -14.5 -88t-42.5 -61.5t-56 -37.5t-66 -26l-22 -6v-273h-95z" />
    <glyph glyph-name="uni0242" unicode="&#x242;" horiz-adv-x="441" 
d="M120 0v197l72 19q110 29 110 129q0 51 -29.5 83.5t-81.5 32.5q-42 0 -71.5 -13t-63.5 -40l-51 56q83 75 189 75q94 0 150.5 -55t56.5 -137q0 -150 -164 -190l-25 -6v-151h-92z" />
    <glyph glyph-name="uni0243" unicode="&#x243;" horiz-adv-x="620" 
d="M416 364q71 -12 115 -50t44 -118q0 -196 -273 -196h-190v168h-92v70h92v451h163q270 0 270 -174q0 -60 -37.5 -100t-91.5 -51zM285 614h-78v-217h104q60 0 98.5 29t38.5 82q0 60 -40.5 83t-122.5 23zM302 76q84 0 128.5 25t44.5 95q0 68 -43 98t-112 30h-113v-86h157v-70
h-157v-92h95z" />
    <glyph glyph-name="uni0244" unicode="&#x244;" horiz-adv-x="690" 
d="M655 577v-69h-69v-287q0 -105 -64 -169t-178 -64q-115 0 -177.5 63.5t-62.5 169.5v287h-69v69h69v112h95v-112h291v112h96v-112h69zM490 228v280h-291v-280q0 -160 145 -160q146 0 146 160z" />
    <glyph glyph-name="uni0245" unicode="&#x245;" horiz-adv-x="573" 
d="M347 689l220 -689h-100l-182 610l-183 -610h-96l221 689h120z" />
    <glyph glyph-name="uni0246" unicode="&#x246;" horiz-adv-x="535" 
d="M481 76v-76h-248l-19 -70l-45 11l16 59h-85v689h268l16 61l45 -11l-13 -50h57l-11 -76h-66l-60 -225h91v-76h-111l-63 -236h228zM195 613v-225h93l60 225h-153zM195 76h10l63 236h-73v-236z" />
    <glyph glyph-name="uni0247" unicode="&#x247;" horiz-adv-x="545" 
d="M491 232h-211l-43 -157q27 -12 60 -12q71 0 137 46l40 -55q-84 -66 -184 -66q-43 0 -74 10l-19 -68l-43 11l20 74q-117 64 -117 243q0 125 59 203t160 78q22 0 41 -3l16 59l43 -11l-16 -59q65 -25 99 -88t34 -158q0 -23 -2 -47zM278 466q-113 0 -123 -166h97l45 165
q-6 1 -19 1zM402 306q0 111 -62 146l-42 -152h104v6zM199 104l35 128h-79q6 -85 44 -128z" />
    <glyph glyph-name="uni0248" unicode="&#x248;" horiz-adv-x="313" 
d="M303 382v-78h-93v-208q0 -102 -44.5 -153t-135.5 -80l-25 69q66 26 88 61.5t22 106.5v204h-95v78h95v307h95v-307h93z" />
    <glyph glyph-name="uni0249" unicode="&#x249;" horiz-adv-x="313" 
d="M156 655q-28 0 -46 17.5t-18 44.5t18 45t46 18q29 0 47 -18t18 -45t-18 -44.5t-47 -17.5zM298 287v-70h-96v-185q0 -55 -9.5 -93.5t-32.5 -66t-51 -45.5t-74 -39l-27 67q39 18 58.5 34t31.5 49t12 88v191h-95v70h95v240h92v-240h96z" />
    <glyph glyph-name="uni024A" unicode="&#x24a;" horiz-adv-x="669" 
d="M703 -115l37 -60q-50 -38 -115 -38q-71 0 -111 40t-40 116v103q-63 -58 -150 -58q-117 0 -193 88t-76 252q0 175 76.5 274t197.5 99q86 0 149 -58l7 46h84v-752q0 -74 61 -74q36 0 73 22zM333 66q79 0 141 60v442q-57 55 -134 55q-86 0 -135 -72t-49 -223
q0 -137 48.5 -199.5t128.5 -62.5z" />
    <glyph glyph-name="uni024B" unicode="&#x24b;" horiz-adv-x="598" 
d="M570 -133l24 -62q-33 -18 -73 -18q-50 0 -80 30.5t-30 85.5v167q-55 -82 -150 -82q-94 0 -146.5 74t-52.5 199q0 123 56 200.5t151 77.5q84 0 148 -71l7 59h79v-624q0 -42 33 -42q14 0 34 6zM281 61q42 0 72 19.5t58 58.5v258q-54 69 -122 69q-61 0 -94.5 -51t-33.5 -152
q0 -202 120 -202z" />
    <glyph glyph-name="uni024C" unicode="&#x24c;" horiz-adv-x="616" 
d="M591 0h-113l-165 292h-107v-292h-95v292h-91v73h91v324h181q262 0 262 -195q0 -140 -149 -185zM302 365q151 0 151 129q0 64 -38.5 92.5t-123.5 28.5h-85v-250h96z" />
    <glyph glyph-name="uni024D" unicode="&#x24d;" horiz-adv-x="400" 
d="M338 539q28 0 52 -6l-17 -90q-24 6 -46 6q-90 0 -122 -132h93v-70h-97v-247h-92v247h-94v70h94v210h79l9 -107q42 119 141 119z" />
    <glyph glyph-name="uni024E" unicode="&#x24e;" horiz-adv-x="550" 
d="M500 604h45v-69h-81l-141 -270v-265h-96v264l-142 271h-75v69h39l-44 85h105l42 -85h252l42 85h99zM278 348l92 187h-184z" />
    <glyph glyph-name="uni024F" unicode="&#x24f;" horiz-adv-x="502" 
d="M487 527l-46 -140h43v-66h-65l-108 -324q-31 -92 -86.5 -145.5t-158.5 -64.5l-10 72q76 13 109.5 43.5t57.5 97.5h-31l-108 321h-67v66h45l-47 140h98l43 -140h194l42 140h95zM254 67l76 254h-154z" />
    <glyph glyph-name="uni0250" unicode="&#x250;" horiz-adv-x="544" 
d="M296 63q58 0 142 28l23 -67q-97 -36 -182 -36q-185 0 -185 175v241q0 32 -11 47.5t-33 23.5l21 64q82 -9 103 -79q53 79 157 79q78 0 123 -44t45 -115q0 -84 -60.5 -129t-171.5 -45h-81v-39q0 -56 27 -80t83 -24zM310 470q-79 0 -124 -82v-121h69q146 0 146 108
q0 95 -91 95z" />
    <glyph glyph-name="uni0251" unicode="&#x251;" horiz-adv-x="599" 
d="M498 139q0 -37 10 -53.5t36 -28.5l-29 -69q-82 19 -101 82q-57 -82 -153 -82q-95 0 -149.5 74.5t-54.5 198.5q0 123 57.5 200.5t155.5 77.5q85 0 143 -72l6 60h79v-388zM275 61q43 0 73 19.5t58 58.5v258q-54 69 -122 69q-61 0 -94.5 -51t-33.5 -152q0 -202 119 -202z
" />
    <glyph glyph-name="uni0252" unicode="&#x252;" horiz-adv-x="599" 
d="M338 539q95 0 149.5 -74.5t54.5 -198.5q0 -123 -57.5 -200.5t-155.5 -77.5q-85 0 -143 72l-6 -60h-79v388q0 37 -10 53.5t-36 28.5l29 69q82 -19 101 -82q57 82 153 82zM315 61q61 0 94.5 51t33.5 152q0 202 -119 202q-43 0 -73 -19.5t-58 -58.5v-258q54 -69 122 -69z
" />
    <glyph glyph-name="uni0253" unicode="&#x253;" horiz-adv-x="594" 
d="M336 539q90 0 143 -72.5t53 -202.5q0 -125 -56 -200.5t-151 -75.5q-83 0 -140 70l-9 -58h-81v599q0 68 43.5 109.5t121.5 41.5q63 0 126 -27l-29 -67q-45 20 -92 20q-42 0 -60 -18.5t-18 -57.5v-139q57 78 149 78zM303 61q61 0 95.5 49.5t34.5 153.5q0 202 -123 202
q-70 0 -123 -82v-252q46 -71 116 -71z" />
    <glyph glyph-name="uni0254" unicode="&#x254;" horiz-adv-x="484" 
d="M192 -12q-93 0 -162 58l43 58q57 -41 119 -42q136 0 136 202q0 201 -132 201q-60 0 -119 -40l-42 57q68 57 162 57q110 0 170 -74t60 -201q0 -124 -62.5 -200t-172.5 -76z" />
    <glyph glyph-name="uni0255" unicode="&#x255;" horiz-adv-x="488" 
d="M345 234q53 0 85.5 -29t32.5 -79q0 -64 -49 -101t-127 -37q-39 0 -71 10l-33 -73l-59 25l33 75q-100 70 -100 234q0 127 62 203.5t168 76.5q93 0 161 -57l-45 -60q-51 41 -112 41q-64 0 -99.5 -51t-35.5 -151q0 -106 41 -155v1q28 67 60.5 97t87.5 30zM297 66q85 0 85 60
q0 41 -41 41q-29 0 -47.5 -19t-43.5 -74q20 -8 47 -8z" />
    <glyph glyph-name="uni0256" unicode="&#x256;" horiz-adv-x="598" 
d="M641 -117l36 -58q-50 -38 -115 -38q-70 0 -110.5 40t-40.5 116v127q-55 -82 -150 -82q-94 0 -146.5 74t-52.5 199q0 123 56 200.5t151 77.5q81 0 142 -65v276l92 -11v-804q0 -74 64 -74q35 0 74 22zM281 61q42 0 72 19.5t58 58.5v258q-54 69 -122 69q-61 0 -94.5 -51
t-33.5 -152q0 -202 120 -202z" />
    <glyph glyph-name="uni0257" unicode="&#x257;" horiz-adv-x="598" 
d="M562 750q65 0 115 -38l-36 -59q-38 23 -74 23q-64 0 -64 -74v-602h-81l-9 73q-55 -85 -152 -85q-94 0 -146.5 74t-52.5 199q0 123 56 200.5t151 77.5q81 0 142 -65v120q0 76 40 116t111 40zM281 61q42 0 72 19.5t58 58.5v258q-54 69 -122 69q-61 0 -94.5 -51t-33.5 -152
q0 -202 120 -202z" />
    <glyph glyph-name="uni0258" unicode="&#x258;" horiz-adv-x="545" 
d="M270 539q108 0 163 -75t55 -206q0 -126 -62 -198t-171 -72q-100 0 -184 66l40 55q66 -46 147 -46q122 0 132 169h-336q-2 24 -2 47q0 122 57 191t161 69zM143 306v-6h247q-4 90 -32 128t-90 38q-61 0 -93 -41.5t-32 -118.5z" />
    <glyph glyph-name="uni0259" unicode="&#x259;" horiz-adv-x="554" 
d="M269 539q114 0 171 -72.5t57 -202.5q0 -127 -61 -201.5t-165 -74.5q-101 0 -160 69.5t-59 190.5q0 33 2 47h345q-5 88 -38 128.5t-94 40.5q-75 0 -135 -49l-42 61q78 63 179 63zM271 61q60 0 92.5 39t36.5 127h-258v-8q0 -75 34.5 -116.5t94.5 -41.5z" />
    <glyph glyph-name="uni025A" unicode="&#x25a;" horiz-adv-x="774" 
d="M758 410l36 -59q-50 -38 -118 -38q-67 0 -104 35t-37 97v8l-66 -35q28 -62 28 -154q0 -127 -61 -201.5t-165 -74.5q-101 0 -160 69.5t-59 190.5q0 33 2 47h345q-5 88 -38 128.5t-94 40.5q-75 0 -135 -49l-42 61q78 63 179 63q106 0 164 -64l100 52h87v-70q0 -70 64 -70
q36 0 74 23zM271 61q60 0 92.5 39t36.5 127h-258v-8q0 -75 34.5 -116.5t94.5 -41.5z" />
    <glyph glyph-name="uni025B" unicode="&#x25b;" horiz-adv-x="468" 
d="M263 539q100 0 171 -49l-44 -55q-55 32 -118 32q-99 0 -99 -79q0 -35 28 -56t76 -21h61l-11 -72h-56q-62 0 -88.5 -20.5t-26.5 -67.5q0 -40 29.5 -64.5t83.5 -24.5q74 0 141 46l43 -58q-78 -62 -189 -62q-94 0 -150.5 42t-56.5 117q0 117 132 134q-111 22 -111 114
q0 66 50.5 105t134.5 39z" />
    <glyph glyph-name="uni025C" unicode="&#x25c;" horiz-adv-x="500" 
d="M225 539q78 0 134 -38t56 -104q0 -44 -25.5 -72t-80.5 -43q66 -11 100 -41t34 -86q0 -82 -63.5 -124.5t-161.5 -42.5q-119 0 -203 66l48 57q69 -49 152 -49q129 0 129 94q0 83 -138 83h-70l6 72h54q56 0 90 20t34 62q0 74 -105 74q-71 0 -136 -43l-44 55q80 60 190 60z
" />
    <glyph glyph-name="uni025D" unicode="&#x25d;" horiz-adv-x="709" 
d="M693 410l36 -59q-50 -38 -118 -38q-67 0 -104 35t-37 97v8l-57 -31q2 -16 2 -25q0 -44 -25.5 -72t-80.5 -43q66 -11 100 -41t34 -86q0 -82 -63.5 -124.5t-161.5 -42.5q-119 0 -203 66l48 57q69 -49 152 -49q129 0 129 94q0 83 -138 83h-70l6 72h54q56 0 90 20t34 62
q0 74 -105 74q-71 0 -136 -43l-44 55q80 60 190 60q102 0 157 -57l86 45h87v-70q0 -70 64 -70q36 0 74 23z" />
    <glyph glyph-name="uni025E" unicode="&#x25e;" horiz-adv-x="569" 
d="M298 -12q-120 0 -180.5 73t-60.5 202q0 125 63 200.5t175 75.5q81 0 135 -39.5t54 -105.5q0 -83 -106 -112q66 -11 100 -41t34 -86q0 -76 -60 -121.5t-154 -45.5zM295 62q120 0 120 94q0 83 -130 83h-39l6 72h23q49 0 82 20t33 62q0 35 -25.5 54.5t-69.5 19.5
q-140 0 -140 -204q0 -104 33 -152.5t107 -48.5z" />
    <glyph glyph-name="uni025F" unicode="&#x25f;" horiz-adv-x="313" 
d="M298 287v-70h-96v-185q0 -55 -9.5 -93.5t-32.5 -66t-51 -45.5t-74 -39l-27 67q39 18 58.5 34t31.5 49t12 88v191h-95v70h95v240h92v-240h96z" />
    <glyph glyph-name="uni0260" unicode="&#x260;" horiz-adv-x="598" 
d="M562 750q65 0 115 -38l-36 -59q-38 23 -74 23q-64 0 -64 -74v-599q0 -216 -223 -216q-99 0 -165 44l31 62q62 -32 129 -32q74 0 105 31.5t31 102.5v95q-55 -82 -150 -82q-94 0 -146.5 72.5t-52.5 190.5q0 116 56 192t151 76q81 0 142 -65v120q0 76 40 116t111 40zM281 81
q42 0 72 19.5t58 58.5v238q-54 69 -122 69q-60 0 -94 -49.5t-34 -143.5q0 -192 120 -192z" />
    <glyph glyph-name="uni0261" unicode="&#x261;" horiz-adv-x="598" 
d="M424 527h79v-524q0 -216 -223 -216q-99 0 -165 44l31 62q62 -32 129 -32q74 0 105 31.5t31 102.5v95q-55 -82 -150 -82q-94 0 -146.5 72.5t-52.5 190.5q0 116 56 192t151 76q84 0 149 -72zM281 81q42 0 72 19.5t58 58.5v238q-54 69 -122 69q-60 0 -94 -49.5t-34 -143.5
q0 -192 120 -192z" />
    <glyph glyph-name="uni0262" unicode="&#x262;" 
d="M304 539q99 0 181 -64l-51 -58q-61 46 -129 46q-64 0 -107 -49.5t-43 -147.5q0 -204 137 -204q57 0 104 22v142h-96l-10 71h196v-255q-91 -53 -195 -53q-111 0 -172.5 70.5t-61.5 206.5q0 123 72 198t175 75z" />
    <glyph glyph-name="uni0263" unicode="&#x263;" horiz-adv-x="492" 
d="M482 527l-184 -463q34 -59 49 -98t15 -80q0 -46 -30 -72.5t-84 -26.5q-55 0 -84.5 26t-29.5 72q0 60 64 177l-188 465h98l140 -403l139 403h95zM280 -109q0 38 -32 109q-32 -75 -32 -109q0 -35 32 -35t32 35z" />
    <glyph glyph-name="uni0264" unicode="&#x264;" horiz-adv-x="523" 
d="M448 539q40 0 75 -28l-30 -52q-19 11 -37 11q-13 0 -20.5 -8.5t-21.5 -35.5l-103 -199q33 -52 45.5 -81t12.5 -63q0 -43 -28 -69t-80 -26q-51 0 -79.5 26t-28.5 68q0 31 12.5 60.5t45.5 84.5l-102 199q-13 26 -21.5 35t-20.5 9q-18 0 -37 -11l-30 52q33 28 75 28t68 -24
t49 -77l69 -153l71 153q25 55 49.5 78t66.5 23zM290 89q0 25 -29 80q-29 -58 -29 -80q0 -32 29 -32t29 32z" />
    <glyph glyph-name="uni0265" unicode="&#x265;" horiz-adv-x="586" 
d="M399 527h92v-740l-92 11v275q-62 -85 -156 -85q-72 0 -112.5 43t-40.5 118v378h92v-365q0 -56 21.5 -79t62.5 -23q74 0 133 92v375z" />
    <glyph glyph-name="uni0266" unicode="&#x266;" horiz-adv-x="586" 
d="M343 539q72 0 112.5 -43t40.5 -118v-378h-92v365q0 56 -21.5 79t-62.5 23q-74 0 -133 -92v-375h-92v599q0 68 43.5 109.5t121.5 41.5q63 0 126 -27l-29 -67q-45 20 -92 20q-42 0 -60 -18.5t-18 -57.5v-146q62 85 156 85z" />
    <glyph glyph-name="uni0267" unicode="&#x267;" horiz-adv-x="586" 
d="M343 539q72 0 112.5 -43t40.5 -118v-435q0 -76 -40.5 -116t-110.5 -40q-65 0 -115 38l36 58q39 -22 74 -22q64 0 64 74v430q0 56 -21.5 79t-62.5 23q-74 0 -133 -92v-375h-92v599q0 68 43.5 109.5t121.5 41.5q63 0 126 -27l-29 -67q-45 20 -92 20q-42 0 -60 -18.5
t-18 -57.5v-146q62 85 156 85z" />
    <glyph glyph-name="uni0268" unicode="&#x268;" horiz-adv-x="313" 
d="M155 655q-28 0 -46 17.5t-18 44.5t18 45t46 18q29 0 47 -18t18 -45t-18 -44.5t-47 -17.5zM298 317v-70h-96v-247h-92v247h-95v70h95v210h92v-210h96z" />
    <glyph glyph-name="uni0269" unicode="&#x269;" horiz-adv-x="293" 
d="M200 -12q-51 0 -80.5 30.5t-29.5 85.5v423h92v-421q0 -42 33 -42q19 0 34 6l24 -64q-33 -18 -73 -18z" />
    <glyph glyph-name="uni026A" unicode="&#x26a;" horiz-adv-x="333" 
d="M308 455h-96v-383h96v-72h-283v72h95v383h-95v72h283v-72z" />
    <glyph glyph-name="uni026B" unicode="&#x26b;" horiz-adv-x="388" 
d="M269 298q-15 0 -29 3v-195q0 -42 33 -42q19 0 34 6l24 -64q-33 -18 -73 -18q-51 0 -80.5 30.5t-29.5 85.5v244q-21 12 -35 12q-39 0 -72 -54l-56 29q50 97 137 97q14 0 26 -3v310l92 11v-367q22 -12 38 -12q40 0 70 48l55 -30q-47 -91 -134 -91z" />
    <glyph glyph-name="uni026C" unicode="&#x26c;" horiz-adv-x="363" 
d="M304 70l24 -64q-33 -18 -73 -18q-51 0 -80.5 30.5t-29.5 85.5v150q-68 2 -104 31.5t-36 79.5q0 46 32 73.5t77 27.5q10 0 31 -3v276l92 11v-434q28 1 76 11l11 -56q-43 -11 -87 -14v-151q0 -42 33 -42q19 0 34 6zM78 365q0 -49 67 -49v88q-10 3 -25 3q-42 0 -42 -42z" />
    <glyph glyph-name="uni026D" unicode="&#x26d;" horiz-adv-x="282" 
d="M325 -117l36 -58q-50 -38 -115 -38q-70 0 -110.5 40t-40.5 116v796l92 11v-815q0 -74 64 -74q35 0 74 22z" />
    <glyph glyph-name="uni026E" unicode="&#x26e;" horiz-adv-x="661" 
d="M396 206q114 0 174.5 -51t60.5 -151q0 -97 -66 -157t-174 -60q-127 0 -205 83l51 51q68 -59 151 -59q70 0 107 37t37 107q0 72 -36 102t-120 30h-79v67l205 246h-320v-345q0 -42 33 -42q19 0 34 6l24 -64q-33 -18 -73 -18q-51 0 -80.5 30.5t-29.5 85.5v635l92 11v-223
h425v-70l-214 -251h3z" />
    <glyph glyph-name="uni026F" unicode="&#x26f;" horiz-adv-x="857" 
d="M670 527h92v-527h-79l-8 77q-59 -89 -152 -89q-49 0 -83.5 25t-49.5 70q-63 -95 -157 -95q-65 0 -104 43.5t-39 117.5v378h92v-365q0 -102 74 -102q39 0 66 22.5t58 70.5v374h92v-365q0 -102 74 -102q40 0 67 23t57 70v374z" />
    <glyph glyph-name="uni0270" unicode="&#x270;" horiz-adv-x="857" 
d="M670 527h92v-740l-92 11v272q-59 -82 -147 -82q-49 0 -83.5 25t-49.5 70q-63 -95 -157 -95q-65 0 -104 43.5t-39 117.5v378h92v-365q0 -102 74 -102q39 0 66 22.5t58 70.5v374h92v-365q0 -102 74 -102q40 0 67 23t57 70v374z" />
    <glyph glyph-name="uni0271" unicode="&#x271;" horiz-adv-x="857" 
d="M624 539q65 0 104 -43.5t39 -117.5v-435q0 -76 -40.5 -116t-110.5 -40q-65 0 -115 38l36 58q39 -22 74 -22q64 0 64 74v430q0 102 -74 102q-39 0 -66 -22.5t-58 -70.5v-374h-92v365q0 102 -74 102q-40 0 -67 -23t-57 -70v-374h-92v527h79l8 -77q59 89 152 89
q49 0 83.5 -25t49.5 -70q63 95 157 95z" />
    <glyph glyph-name="uni0272" unicode="&#x272;" horiz-adv-x="586" 
d="M343 539q72 0 112.5 -43t40.5 -118v-378h-92v365q0 56 -21 79t-62 23q-76 0 -134 -93v-431q0 -76 -40.5 -116t-110.5 -40q-65 0 -115 38l36 58q39 -22 74 -22q64 0 64 74v592h79l8 -78q60 90 161 90z" />
    <glyph glyph-name="uni0273" unicode="&#x273;" horiz-adv-x="586" 
d="M634 -117l36 -58q-50 -38 -115 -38q-70 0 -110.5 40t-40.5 116v422q0 56 -21 79t-62 23q-76 0 -134 -93v-374h-92v527h79l8 -78q60 90 161 90q72 0 112.5 -43t40.5 -118v-443q0 -74 64 -74q35 0 74 22z" />
    <glyph glyph-name="uni0274" unicode="&#x274;" horiz-adv-x="595" 
d="M500 527v-527h-118l-213 435q11 -105 11 -226v-209h-85v527h118l213 -437q-11 68 -11 150v287h85z" />
    <glyph glyph-name="uni0275" unicode="&#x275;" horiz-adv-x="584" 
d="M293 539q111 0 172.5 -74t61.5 -201q0 -124 -62.5 -200t-172.5 -76q-111 0 -173 74t-62 201q0 125 62.5 200.5t173.5 75.5zM293 466q-124 0 -137 -163h273q-13 163 -136 163zM292 61q127 0 137 172h-274q10 -172 137 -172z" />
    <glyph glyph-name="uni0276" unicode="&#x276;" horiz-adv-x="753" 
d="M723 71v-71h-357q-39 -12 -74 -12q-111 0 -173 74t-62 201q0 125 62.5 200.5t173.5 75.5q46 0 81 -12h344l-10 -71h-252q57 -54 70 -153h152v-71h-151q-9 -103 -76 -161h272zM156 263q0 -201 137 -201q61 0 99 50.5t38 150.5q0 101 -37.5 151.5t-99.5 50.5
q-137 0 -137 -202z" />
    <glyph glyph-name="uni0277" unicode="&#x277;" horiz-adv-x="762" 
d="M382 539q159 0 241 -82.5t82 -217.5q0 -126 -52 -188.5t-134 -62.5q-56 0 -92 29.5t-45 87.5q-13 -61 -48.5 -89t-97.5 -28q-79 0 -129 61.5t-50 189.5q0 135 83 217.5t242 82.5zM509 62q103 0 103 178q0 226 -230 226q-232 0 -232 -228q0 -176 100 -176q42 0 64.5 25
t22.5 94v124l88 12v-136q0 -119 84 -119z" />
    <glyph glyph-name="uni0278" unicode="&#x278;" horiz-adv-x="628" 
d="M582 265q0 -119 -60 -187.5t-162 -74.5v-205l-92 -11v217q-106 7 -164 75.5t-58 183.5q0 119 60 187.5t162 73.5v214l92 10v-225q107 -7 164.5 -75t57.5 -183zM145 263q0 -177 126 -187v377q-126 -14 -126 -190zM357 75q126 15 126 190t-126 186v-376z" />
    <glyph glyph-name="uni0279" unicode="&#x279;" horiz-adv-x="386" 
d="M199 527h92v-527h-79l-9 107q-42 -119 -141 -119q-28 0 -52 6l17 90q24 -6 46 -6q49 0 79 36t47 112v301z" />
    <glyph glyph-name="uni027A" unicode="&#x27a;" horiz-adv-x="386" 
d="M199 750l92 -11v-739h-79l-9 107q-42 -119 -141 -119q-28 0 -52 6l17 90q24 -6 46 -6q49 0 79 36t47 112v524z" />
    <glyph glyph-name="uni027B" unicode="&#x27b;" horiz-adv-x="386" 
d="M429 -117l36 -58q-50 -38 -115 -38q-70 0 -110.5 40t-40.5 116v154q-42 -109 -137 -109q-28 0 -52 6l17 90q24 -6 46 -6q49 0 79 36t47 112v301h92v-592q0 -74 64 -74q35 0 74 22z" />
    <glyph glyph-name="uni027C" unicode="&#x27c;" horiz-adv-x="386" 
d="M324 539q28 0 52 -6l-17 -90q-24 6 -46 6q-49 0 -79 -36t-47 -112v-503l-92 -11v740h79l9 -107q42 119 141 119z" />
    <glyph glyph-name="uni027D" unicode="&#x27d;" horiz-adv-x="386" 
d="M251 -139q35 0 74 22l36 -58q-50 -38 -115 -38q-70 0 -110.5 40t-40.5 116v584h79l9 -107q42 119 141 119q28 0 52 -6l-17 -90q-24 6 -46 6q-49 0 -79 -36t-47 -112v-366q0 -74 64 -74z" />
    <glyph glyph-name="uni027E" unicode="&#x27e;" horiz-adv-x="368" 
d="M241 541q65 0 115 -38l-36 -58q-39 22 -74 22q-64 0 -64 -74v-393h-92v385q0 76 40.5 116t110.5 40z" />
    <glyph glyph-name="uni027F" unicode="&#x27f;" horiz-adv-x="368" 
d="M127 541q70 0 110.5 -40t40.5 -116v-385h-92v393q0 74 -64 74q-35 0 -74 -22l-36 58q50 38 115 38z" />
    <glyph glyph-name="uni0280" unicode="&#x280;" horiz-adv-x="527" 
d="M492 0h-104l-128 202h-12h-61v-202h-92v527h143q107 0 163.5 -41t56.5 -120q0 -52 -29 -91t-82 -58zM187 456v-184h67q108 0 108 94q0 90 -125 90h-50z" />
    <glyph glyph-name="uni0281" unicode="&#x281;" horiz-adv-x="527" 
d="M348 311q110 -36 110 -145q0 -82 -56.5 -124t-163.5 -42h-143v527h92v-202h61h12l128 202h104zM237 71q64 0 94.5 22.5t30.5 72.5q0 89 -108 89h-67v-184h50z" />
    <glyph glyph-name="uni0282" unicode="&#x282;" horiz-adv-x="467" 
d="M227 -12q-65 0 -113 22v-75q0 -74 67 -74q36 0 74 23l36 -59q-50 -38 -115 -38q-71 0 -111 40t-40 116v114l43 49q67 -44 154 -44q51 0 82 21t31 56q0 41 -25.5 61.5t-102.5 40.5q-84 22 -121.5 59.5t-37.5 94.5q0 62 54 103t136 41q100 0 179 -60l-40 -61
q-67 48 -136 48q-45 0 -71 -18.5t-26 -50.5t24.5 -50t88.5 -35q88 -22 131.5 -60t43.5 -104q0 -78 -60 -119t-145 -41z" />
    <glyph glyph-name="uni0283" unicode="&#x283;" horiz-adv-x="282" 
d="M246 750q65 0 115 -38l-36 -59q-38 23 -74 23q-64 0 -64 -74v-659q0 -76 -40.5 -116t-110.5 -40q-65 0 -115 38l36 58q39 -22 74 -22q64 0 64 74v659q0 76 40 116t111 40z" />
    <glyph glyph-name="uni0284" unicode="&#x284;" horiz-adv-x="313" 
d="M202 70h96v-70h-97q-6 -88 -43.5 -131t-122.5 -81l-27 67q54 25 76.5 53.5t25.5 91.5h-95v70h95v524q0 76 40 116t111 40q65 0 115 -38l-36 -59q-38 23 -74 23q-64 0 -64 -74v-532z" />
    <glyph glyph-name="uni0285" unicode="&#x285;" horiz-adv-x="440" 
d="M404 84l36 -58q-50 -38 -115 -38q-70 0 -110.5 40t-40.5 116v247q0 74 -64 74q-36 0 -74 -23l-36 59q50 38 115 38q71 0 111 -40t40 -116v-247q0 -74 64 -74q35 0 74 22z" />
    <glyph glyph-name="uni0286" unicode="&#x286;" horiz-adv-x="304" 
d="M273 676q-64 0 -64 -74v-75l1 -536q56 -14 112 -39l-22 -50q-64 25 -94 32q-11 -73 -54.5 -110t-112.5 -37q-59 0 -94 29.5t-35 77.5q0 56 40 87.5t108 31.5q35 0 59 -3v584q0 76 40 116t111 40q65 0 115 -38l-36 -59q-38 23 -74 23zM38 -150q40 0 58.5 24t20.5 77
q-30 4 -58 4q-77 0 -77 -57q0 -48 56 -48z" />
    <glyph glyph-name="uni0287" unicode="&#x287;" horiz-adv-x="361" 
d="M352 71v-71h-92v-119l-92 -11v130h-125l10 71h115v314q0 41 -14.5 59.5t-48.5 18.5q-31 0 -70 -21l-35 61q52 36 118 36q67 0 104.5 -38.5t37.5 -111.5v-318h92z" />
    <glyph glyph-name="uni0288" unicode="&#x288;" horiz-adv-x="361" 
d="M331 -117l36 -58q-50 -38 -115 -38q-70 0 -110.5 40t-40.5 116v513h-92v71h92v119l92 11v-130h125l-10 -71h-115v-521q0 -74 64 -74q35 0 74 22z" />
    <glyph glyph-name="uni0289" unicode="&#x289;" horiz-adv-x="607" 
d="M582 387v-70h-85v-317h-79l-7 82q-59 -94 -164 -94q-69 0 -108 42t-39 119v168h-85v70h85v140h92v-140h213v140h92v-140h85zM405 151v166h-213v-158q0 -54 19 -76.5t62 -22.5q77 0 132 91z" />
    <glyph glyph-name="uni028A" unicode="&#x28a;" horiz-adv-x="583" 
d="M291 -12q-106 0 -170 70.5t-64 180.5q0 134 90 216h-77v72h161v-70q-36 -42 -56.5 -90.5t-20.5 -126.5q0 -88 35 -133.5t102 -45.5q66 0 102 46t36 134q0 77 -20.5 125.5t-57.5 90.5v70h161v-72h-76q90 -82 90 -216q0 -108 -64.5 -179.5t-170.5 -71.5z" />
    <glyph glyph-name="uni028B" unicode="&#x28b;" horiz-adv-x="581" 
d="M269 -12q-77 0 -128 45.5t-51 129.5v364h92v-356q0 -109 91 -109q58 0 97 46.5t39 154.5v158q0 42 -33 42q-19 0 -34 -6l-24 64q33 18 71 18q52 0 82 -31t30 -91v-152q0 -140 -66 -208.5t-166 -68.5z" />
    <glyph glyph-name="uni028C" unicode="&#x28c;" horiz-adv-x="492" 
d="M10 0l179 527h111l182 -527h-100l-138 445l-137 -445h-97z" />
    <glyph glyph-name="uni028D" unicode="&#x28d;" horiz-adv-x="717" 
d="M20 0l120 527h125l92 -444l95 444h122l123 -527h-92l-95 463l-104 -463h-103l-99 463l-96 -463h-88z" />
    <glyph glyph-name="uni028E" unicode="&#x28e;" horiz-adv-x="492" 
d="M10 0l176 530q34 104 88 157.5t157 64.5l10 -70q-77 -13 -110.5 -46t-57.5 -109h32l177 -527h-98l-141 460l-138 -460h-95z" />
    <glyph glyph-name="uni028F" unicode="&#x28f;" horiz-adv-x="458" 
d="M458 527l-183 -329v-198h-92v197l-183 330h98l133 -263l132 263h95z" />
    <glyph glyph-name="uni0290" unicode="&#x290;" horiz-adv-x="437" 
d="M545 -117l36 -58q-50 -38 -115 -38q-70 0 -109 40t-39 116v57h-293v69l274 380h-251v78h356v-70l-275 -380h278v-142q0 -74 64 -74q35 0 74 22z" />
    <glyph glyph-name="uni0291" unicode="&#x291;" horiz-adv-x="452" 
d="M472 120q0 -118 -184 -120q-5 -41 -5 -122h-68q0 71 5 122h-195v69l274 380h-251v78h356v-70l-275 -380h103q26 137 137 137q45 0 74 -25t29 -69zM302 77q52 2 72.5 10.5t20.5 32.5q0 33 -32 33q-46 0 -61 -76z" />
    <glyph glyph-name="uni0292" unicode="&#x292;" horiz-adv-x="481" 
d="M216 206q114 0 174.5 -50.5t60.5 -148.5q0 -99 -65.5 -159.5t-174.5 -60.5q-132 0 -211 90l54 50q66 -65 155 -65q70 0 106.5 37.5t36.5 109.5q0 70 -36 99.5t-120 29.5h-79v67l205 246h-291v76h396v-70l-214 -251h3z" />
    <glyph glyph-name="uni0293" unicode="&#x293;" horiz-adv-x="481" 
d="M451 6q0 -78 -43 -132t-125 -75l24 -53l-64 -25l-30 67q-11 -1 -33 -1q-214 0 -214 132q0 49 33 80t85 31q59 0 95.5 -35.5t72.5 -125.5q100 24 100 137q0 72 -36 102t-120 30h-79v67l205 246h-291v76h396v-70l-214 -251h3q114 0 174.5 -51t60.5 -149zM45 -79
q0 -31 31 -45t104 -14q-26 60 -45 80.5t-46 20.5q-44 0 -44 -42z" />
    <glyph glyph-name="uni0294" unicode="&#x294;" horiz-adv-x="441" 
d="M132 0v348l61 18q61 18 93 53.5t32 105.5q0 71 -32.5 111t-98.5 40q-76 0 -147 -63l-50 52q88 85 201 85q104 0 164.5 -62t60.5 -161q0 -52 -15.5 -92t-43 -65t-55.5 -39.5t-64 -24.5l-14 -4v-302h-92z" />
    <glyph glyph-name="uni0295" unicode="&#x295;" horiz-adv-x="442" 
d="M310 0h-92v302l-14 4q-36 10 -64.5 24.5t-56 39.5t-43 64.5t-15.5 91.5q0 100 63 162t167 62q110 0 197 -85l-50 -52q-71 63 -144 63q-65 0 -100 -40t-35 -111q0 -70 32.5 -105.5t93.5 -53.5l61 -18v-348z" />
    <glyph glyph-name="uni0296" unicode="&#x296;" horiz-adv-x="513" 
d="M162 738l92 10v-311l24 -3q75 -16 126.5 -70t51.5 -152q0 -97 -62 -160t-165 -63q-111 0 -199 85l50 52q71 -63 147 -63q66 0 98.5 40t32.5 111t-30.5 108t-94.5 53l-71 16v347z" />
    <glyph glyph-name="uni0297" unicode="&#x297;" horiz-adv-x="495" 
d="M313 539q84 0 152 -57l-42 -58q-55 39 -111 39q-139 0 -139 -302q0 -157 35 -225.5t103 -68.5q52 0 111 41l43 -61q-72 -58 -156 -58q-112 0 -173.5 93t-61.5 277q0 185 62 282.5t177 97.5z" />
    <glyph glyph-name="uni0298" unicode="&#x298;" horiz-adv-x="792" 
d="M396 701q152 0 246.5 -94.5t94.5 -261.5q0 -166 -94.5 -261.5t-246.5 -95.5t-246.5 94.5t-94.5 261.5q0 164 95.5 260.5t245.5 96.5zM396 627q-115 0 -183.5 -71.5t-68.5 -211.5q0 -141 69 -211.5t183 -70.5q116 0 184 70t68 213q0 140 -67.5 211t-184.5 71zM396 408
q29 0 47 -18t18 -45t-18 -44.5t-47 -17.5q-28 0 -46 17.5t-18 44.5t18 45t46 18z" />
    <glyph glyph-name="uni0299" unicode="&#x299;" horiz-adv-x="564" 
d="M373 286q134 -13 134 -124q0 -83 -60.5 -122.5t-161.5 -39.5h-190v520q93 19 173 19q98 0 155 -37t57 -106q0 -92 -107 -110zM269 468q-41 0 -82 -6v-149h99q100 0 100 79q0 40 -29 58t-88 18zM285 72q59 0 92 20t33 72q0 43 -28 62t-95 19h-100v-173h98z" />
    <glyph glyph-name="uni029A" unicode="&#x29a;" horiz-adv-x="569" 
d="M271 -12q-94 0 -154 45.5t-60 121.5q0 56 34 86t100 41q-106 29 -106 112q0 66 54 105.5t135 39.5q112 0 175 -75.5t63 -200.5q0 -129 -60.5 -202t-180.5 -73zM274 62q74 0 107 48.5t33 152.5q0 204 -140 204q-44 0 -69.5 -19.5t-25.5 -54.5q0 -42 33 -62t82 -20h23
l6 -72h-39q-130 0 -130 -83q0 -94 120 -94z" />
    <glyph glyph-name="uni029B" unicode="&#x29b;" 
d="M544 750q65 0 115 -38l-36 -59q-38 23 -74 23q-64 0 -64 -74v-127l-46 -52q-66 40 -133 40q-66 0 -108.5 -49t-42.5 -148q0 -204 137 -204q57 0 104 22v142h-96l-10 71h196v-255q-91 -53 -195 -53q-111 0 -172.5 70.5t-61.5 206.5q0 123 72 198t175 75q48 0 89 -19v74
q0 76 40 116t111 40z" />
    <glyph glyph-name="uni029C" unicode="&#x29c;" horiz-adv-x="593" 
d="M406 0v232h-219v-232h-92v527h92v-221h219v221h92v-527h-92z" />
    <glyph glyph-name="uni029D" unicode="&#x29d;" horiz-adv-x="307" 
d="M163 655q-28 0 -46 17.5t-18 44.5t18 45t46 18q29 0 47 -18t18 -45t-18 -44.5t-47 -17.5zM322 -48l-22 -50q-64 25 -94 32q-24 -147 -167 -147q-59 0 -94 29.5t-35 77.5q0 56 40 87.5t108 31.5q36 0 60 -3v517h92v-536q56 -14 112 -39zM38 -150q40 0 58.5 24t20.5 76
q-25 5 -58 5q-77 0 -77 -57q0 -48 56 -48z" />
    <glyph glyph-name="uni029E" unicode="&#x29e;" horiz-adv-x="512" 
d="M22 0l194 233l-216 294h110l209 -288l-194 -239h-103zM325 -202v729h92v-740z" />
    <glyph glyph-name="uni029F" unicode="&#x29f;" horiz-adv-x="436" 
d="M187 527v-449h234l-11 -78h-315v527h92z" />
    <glyph glyph-name="uni02A0" unicode="&#x2a0;" horiz-adv-x="598" 
d="M562 750q65 0 115 -38l-36 -59q-38 23 -74 23q-64 0 -64 -74v-815l-92 11v272q-55 -82 -150 -82q-94 0 -146.5 74t-52.5 199q0 123 56 200.5t151 77.5q83 0 142 -69v124q0 76 40 116t111 40zM281 61q42 0 72 19.5t58 58.5v258q-54 69 -122 69q-61 0 -94.5 -51t-33.5 -152
q0 -202 120 -202z" />
    <glyph glyph-name="uni02A1" unicode="&#x2a1;" horiz-adv-x="441" 
d="M238 306l-14 -4v-87h108v-70h-108v-145h-92v145h-68v70h68v133l61 18q61 18 93 53.5t32 105.5q0 71 -32.5 111t-98.5 40q-76 0 -147 -63l-50 52q88 85 201 85q104 0 164.5 -62t60.5 -161q0 -52 -15.5 -92t-43 -65t-55.5 -39.5t-64 -24.5z" />
    <glyph glyph-name="uni02A2" unicode="&#x2a2;" horiz-adv-x="442" 
d="M258 676q-65 0 -100 -40t-35 -111q0 -70 32.5 -105.5t93.5 -53.5l61 -18v-133h68v-70h-68v-145h-92v145h-108v70h108v87l-14 4q-36 10 -64.5 24.5t-56 39.5t-43 64.5t-15.5 91.5q0 100 63 162t167 62q110 0 197 -85l-50 -52q-71 63 -144 63z" />
    <glyph glyph-name="uni02A3" unicode="&#x2a3;" horiz-adv-x="915" 
d="M602 77h283l-11 -77h-452l-9 73q-55 -85 -152 -85q-94 0 -146.5 74t-52.5 199q0 123 56 200.5t151 77.5q81 0 142 -65v276l92 -11v-212h379v-70zM281 61q42 0 72 19.5t58 58.5v258q-54 69 -122 69q-61 0 -94.5 -51t-33.5 -152q0 -202 120 -202zM503 449v-380l279 380
h-279z" />
    <glyph glyph-name="uni02A4" unicode="&#x2a4;" horiz-adv-x="952" 
d="M687 206q114 0 174.5 -50.5t60.5 -148.5q0 -99 -65.5 -159.5t-174.5 -60.5q-132 0 -211 90l54 50q66 -65 155 -65q70 0 106.5 37.5t36.5 109.5q0 70 -36 99.5t-120 29.5h-79v67l205 246h-290v-451h-81l-9 73q-55 -85 -152 -85q-94 0 -146.5 74t-52.5 199q0 123 56 200.5
t151 77.5q81 0 142 -65v276l92 -11v-212h395v-70l-214 -251h3zM281 61q42 0 72 19.5t58 58.5v258q-54 69 -122 69q-61 0 -94.5 -51t-33.5 -152q0 -202 120 -202z" />
    <glyph glyph-name="uni02A5" unicode="&#x2a5;" horiz-adv-x="929" 
d="M949 119q0 -117 -184 -119q-5 -41 -5 -122h-68q0 71 5 122h-275l-9 73q-55 -85 -152 -85q-94 0 -146.5 74t-52.5 199q0 123 56 200.5t151 77.5q81 0 142 -65v276l92 -11v-212h378v-70l-275 -380h103q26 137 137 137q45 0 74 -25.5t29 -69.5zM281 61q42 0 72 19.5t58 58.5
v258q-54 69 -122 69q-61 0 -94.5 -51t-33.5 -152q0 -202 120 -202zM503 449v-379l273 379h-273zM779 77q52 2 72.5 10.5t20.5 32.5q0 33 -32 33q-46 0 -61 -76z" />
    <glyph glyph-name="uni02A6" unicode="&#x2a6;" horiz-adv-x="693" 
d="M503 312q82 -25 118.5 -62.5t36.5 -93.5q0 -81 -75 -124.5t-204 -43.5q-278 0 -278 210v258h-92v71h92v119l92 11v-130h105l-10 -71h-95v-254q0 -72 41.5 -105t146.5 -33q180 0 180 85q0 32 -20.5 52t-85.5 40q-89 27 -120 62t-31 91q0 62 52 103.5t128 41.5
q90 0 169 -60l-39 -58q-70 45 -129 45q-37 0 -61 -19t-24 -50q0 -30 21.5 -48.5t81.5 -36.5z" />
    <glyph glyph-name="uni02A7" unicode="&#x2a7;" horiz-adv-x="574" 
d="M538 750q65 0 115 -38l-36 -59q-38 23 -74 23q-64 0 -64 -74v-659q0 -76 -40.5 -116t-110.5 -40q-65 0 -115 38l36 58q39 -22 74 -22q64 0 64 74v74q-56 -21 -114 -21q-172 0 -172 160v308h-92v71h92v119l92 11v-130h194v67q0 76 40 116t111 40zM276 64q51 0 111 12v380
h-194v-304q0 -47 19.5 -67.5t63.5 -20.5z" />
    <glyph glyph-name="uni02A8" unicode="&#x2a8;" horiz-adv-x="765" 
d="M623 234q53 0 85 -29t32 -78q0 -65 -49 -102t-127 -37q-94 0 -152 53q-85 -53 -159 -53t-113 38.5t-39 111.5v318h-92v71h92v119l92 11v-130h125l-10 -71h-115v-314q0 -41 16 -59.5t57 -18.5q45 0 105 30q-37 65 -37 165q0 127 62 203.5t168 76.5q93 0 161 -57l-45 -60
q-51 41 -112 41q-64 0 -99.5 -51t-35.5 -151q0 -66 16 -110q91 83 174 83zM574 66q85 0 85 60q0 41 -42 41q-26 0 -55.5 -15.5t-78.5 -53.5q34 -32 91 -32z" />
    <glyph glyph-name="uni02A9" unicode="&#x2a9;" horiz-adv-x="874" 
d="M631 539q72 0 112.5 -43t40.5 -118v-435q0 -76 -40.5 -116t-110.5 -40q-65 0 -115 38l36 58q39 -22 74 -22q64 0 64 74v430q0 56 -21 79t-62 23q-76 0 -134 -93v-374h-92v456h-187v-456h-92v456h-94v71h94v72q0 68 43.5 109.5t121.5 41.5q63 0 126 -27l-29 -67
q-45 20 -92 20q-42 0 -60 -18.5t-18 -57.5v-73h266l8 -78q60 90 161 90z" />
    <glyph glyph-name="uni02AA" unicode="&#x2aa;" horiz-adv-x="663" 
d="M349 -12q-127 0 -193 54t-66 153v544l92 11v-557q0 -68 39.5 -98.5t127.5 -30.5q182 0 182 85q0 32 -20.5 52t-85.5 40q-89 27 -120 62t-31 91q0 62 52 103.5t128 41.5q90 0 169 -60l-39 -58q-70 45 -129 45q-37 0 -61 -19t-24 -50q0 -30 21.5 -48.5t81.5 -36.5
q82 -25 118.5 -62.5t36.5 -93.5q0 -82 -73.5 -125t-205.5 -43z" />
    <glyph glyph-name="uni02AB" unicode="&#x2ab;" horiz-adv-x="660" 
d="M630 77l-11 -77h-358q-31 -12 -61 -12q-51 0 -80.5 30.5t-29.5 85.5v635l92 11v-644q0 -42 33 -42q19 0 34 6l273 379h-251v78h356v-70l-281 -380h284z" />
    <glyph glyph-name="uni02AC" unicode="&#x2ac;" horiz-adv-x="467" 
d="M437 665l-68 -265h-87l-47 194l-47 -194h-91l-67 265h80l37 -200l51 200h78l47 -201l40 201h74zM437 265l-68 -265h-87l-47 194l-47 -194h-91l-67 265h80l37 -200l51 200h78l47 -201l40 201h74z" />
    <glyph glyph-name="uni02AD" unicode="&#x2ad;" horiz-adv-x="340" 
d="M30 400v149h280v-149h-63v90h-154v-90h-63zM30 0v149h280v-149h-63v90h-154v-90h-63z" />
    <glyph glyph-name="uni02AE" unicode="&#x2ae;" horiz-adv-x="682" 
d="M495 527h92v-740l-92 11v275q-62 -85 -156 -85q-72 0 -112.5 43t-40.5 118v244q0 74 -64 74q-35 0 -74 -22l-36 58q50 38 115 38q70 0 110.5 -40t40.5 -116v-223q0 -56 21.5 -79t62.5 -23q74 0 133 92v375z" />
    <glyph glyph-name="uni02AF" unicode="&#x2af;" horiz-adv-x="682" 
d="M725 -117l36 -58q-50 -38 -115 -38q-70 0 -110.5 40t-40.5 116v130q-62 -85 -156 -85q-72 0 -112.5 43t-40.5 118v244q0 74 -64 74q-35 0 -74 -22l-36 58q50 38 115 38q70 0 110.5 -40t40.5 -116v-223q0 -56 21.5 -79t62.5 -23q74 0 133 92v375h92v-592q0 -74 64 -74
q35 0 74 22z" />
    <glyph glyph-name="uni02B0" unicode="&#x2b0;" horiz-adv-x="309" 
d="M197 673q38 0 60 -21t22 -59v-193h-77v179q0 35 -29 35q-26 0 -66 -32v-182h-77v372l77 9v-148q36 40 90 40z" />
    <glyph glyph-name="uni02B1" unicode="&#x2b1;" horiz-adv-x="309" 
d="M197 673q38 0 60 -21t22 -59v-193h-77v179q0 35 -29 35q-26 0 -66 -32v-182h-77v293q0 38 28.5 62t79.5 24q42 0 81 -16l-23 -51q-27 8 -48 8q-22 0 -31.5 -6.5t-9.5 -27.5v-53q36 40 90 40z" />
    <glyph glyph-name="uni02B2" unicode="&#x2b2;" horiz-adv-x="203" 
d="M126 804q21 0 34 -12.5t13 -31.5t-13 -31.5t-34 -12.5t-34.5 13t-13.5 31t13.5 31t34.5 13zM165 665v-240q0 -58 -28 -87t-84 -47l-23 52q33 18 45.5 33.5t12.5 48.5v240h77z" />
    <glyph glyph-name="uni02B4" unicode="&#x2b4;" horiz-adv-x="242" 
d="M135 666h77v-266h-59l-13 56q-21 -63 -77 -63q-21 0 -33 5l13 72q11 -4 27 -4q26 0 40.5 19t24.5 57v124z" />
    <glyph glyph-name="uni02B7" unicode="&#x2b7;" horiz-adv-x="467" 
d="M437 665l-68 -265h-87l-47 194l-47 -194h-91l-67 265h80l37 -200l51 200h78l47 -201l40 201h74z" />
    <glyph glyph-name="uni02B8" unicode="&#x2b8;" horiz-adv-x="344" 
d="M314 665l-99 -266q-19 -52 -54 -77t-98 -33l-9 54q42 8 61 20t33 37h-27l-91 265h83l57 -215l66 215h78z" />
    <glyph glyph-name="uni02B9" unicode="&#x2b9;" horiz-adv-x="304" 
d="M60 427l85 262h99l-115 -262h-69z" />
    <glyph glyph-name="uni02BA" unicode="&#x2ba;" horiz-adv-x="454" 
d="M60 427l85 262h99l-115 -262h-69zM210 427l85 262h99l-115 -262h-69z" />
    <glyph glyph-name="uni02BB" unicode="&#x2bb;" horiz-adv-x="204" 
d="M95 587q-27 0 -46 18.5t-19 44.5q0 21 17 58l67 142h60l-40 -150q26 -20 26 -50q0 -26 -19.5 -44.5t-45.5 -18.5z" />
    <glyph glyph-name="uni02BC" unicode="&#x2bc;" horiz-adv-x="228" 
d="M119 753q27 0 46 -18.5t19 -44.5q0 -21 -17 -58l-67 -142h-60l40 150q-26 20 -26 50q0 26 19.5 44.5t45.5 18.5z" />
    <glyph glyph-name="uni02BF" unicode="&#x2bf;" horiz-adv-x="174" 
d="M144 624v50q-25 0 -39 15t-14 41t14 41t39 15v50q-50 0 -82 -30.5t-32 -75.5t32 -75.5t82 -30.5z" />
    <glyph glyph-name="uni02C0" unicode="&#x2c0;" horiz-adv-x="262" 
d="M82 611v94q39 5 55 13.5t16 29.5q0 36 -44 36q-28 0 -57 -13l-22 51q41 24 94 24q51 0 79.5 -24.5t28.5 -66.5q0 -73 -81 -86v-58h-69z" />
    <glyph glyph-name="circumflex" unicode="&#x2c6;" horiz-adv-x="392" 
d="M69 634l-39 45l135 113h61l136 -113l-40 -45l-126 84z" />
    <glyph glyph-name="caron" unicode="&#x2c7;" horiz-adv-x="392" 
d="M323 785l39 -45l-135 -113h-61l-136 113l40 45l126 -84z" />
    <glyph glyph-name="uni02C8" unicode="&#x2c8;" horiz-adv-x="147" 
d="M30 626v232h87v-232h-87z" />
    <glyph glyph-name="uni02CA" unicode="&#x2ca;" horiz-adv-x="300" 
d="M229 801l41 -77l-212 -86l-28 49z" />
    <glyph glyph-name="uni02CB" unicode="&#x2cb;" horiz-adv-x="300" 
d="M71 801l199 -114l-28 -49l-212 86z" />
    <glyph glyph-name="uni02CC" unicode="&#x2cc;" horiz-adv-x="147" 
d="M30 -304v232h87v-232h-87z" />
    <glyph glyph-name="uni02CE" unicode="&#x2ce;" horiz-adv-x="300" 
d="M69 -49l201 -107l-24 -49l-216 79z" />
    <glyph glyph-name="uni02CF" unicode="&#x2cf;" horiz-adv-x="300" 
d="M230 -49l40 -77l-216 -79l-24 49z" />
    <glyph glyph-name="uni02D0" unicode="&#x2d0;" horiz-adv-x="247" 
d="M110 333l-60 154h146l-61 -154h-25zM110 154h25l61 -154h-146z" />
    <glyph glyph-name="uni02D1" unicode="&#x2d1;" horiz-adv-x="247" 
d="M110 333l-60 154h146l-61 -154h-25z" />
    <glyph glyph-name="uni02D4" unicode="&#x2d4;" horiz-adv-x="424" 
d="M362 249v-59h-300v59h118v160h63v-160h119z" />
    <glyph glyph-name="uni02D6" unicode="&#x2d6;" horiz-adv-x="461" 
d="M268 467v-135h131v-68h-131v-134h-76v134h-130v68h130v135h76z" />
    <glyph glyph-name="uni02D7" unicode="&#x2d7;" horiz-adv-x="462" 
d="M62 265v69h338v-69h-338z" />
    <glyph glyph-name="breve" unicode="&#x2d8;" horiz-adv-x="363" 
d="M180 643q-61 0 -102.5 35.5t-47.5 97.5l61 13q21 -76 89 -76q71 0 92 76l61 -13q-6 -62 -48.5 -97.5t-104.5 -35.5z" />
    <glyph glyph-name="dotaccent" unicode="&#x2d9;" horiz-adv-x="189" 
d="M94 780q29 0 47 -18t18 -45t-18 -44.5t-47 -17.5q-28 0 -46 17.5t-18 44.5t18 45t46 18z" />
    <glyph glyph-name="ring" unicode="&#x2da;" horiz-adv-x="288" 
d="M144 836q50 0 82 -30.5t32 -75.5t-32 -75.5t-82 -30.5t-82 30.5t-32 75.5t32 75.5t82 30.5zM144 786q-25 0 -39 -15t-14 -41t14 -41t39 -15q24 0 38.5 15t14.5 41t-14 41t-39 15z" />
    <glyph glyph-name="ogonek" unicode="&#x2db;" horiz-adv-x="263" 
d="M254 33l14 -33q-71 -31 -97 -57.5t-26 -56.5q0 -48 56 -48q27 0 61 7l-9 -70q-35 -7 -63 -7q-57 0 -91 28.5t-34 72.5q0 55 46 95t143 69z" />
    <glyph glyph-name="tilde" unicode="&#x2dc;" horiz-adv-x="394" 
d="M255 656q-29 0 -64.5 24t-51.5 24q-28 0 -53 -46l-56 28q41 88 109 88q30 0 65 -24t51 -24q27 0 53 44l56 -28q-39 -86 -109 -86z" />
    <glyph glyph-name="hungarumlaut" unicode="&#x2dd;" horiz-adv-x="366" 
d="M106 832l78 -41l-96 -152l-58 25zM258 832l78 -41l-106 -157l-58 25z" />
    <glyph glyph-name="uni02DE" unicode="&#x2de;" horiz-adv-x="394" 
d="M296 313q-67 0 -104 35t-37 97v8l-120 -64v76l118 62h87v-70q0 -70 64 -70q36 0 74 23l36 -59q-50 -38 -118 -38z" />
    <glyph glyph-name="uni02E0" unicode="&#x2e0;" horiz-adv-x="348" 
d="M318 665l-105 -228q35 -50 35 -86q0 -28 -19 -44.5t-54 -16.5t-54.5 16.5t-19.5 44.5q0 43 36 87l-107 227h83l62 -185l61 185h82zM188 354q0 19 -13 46q-14 -28 -14 -46q0 -14 14 -14q13 0 13 14z" />
    <glyph glyph-name="uni02E1" unicode="&#x2e1;" horiz-adv-x="186" 
d="M108 391q-78 0 -78 75v306l77 8v-311q0 -15 17 -15q1 0 16 3l16 -57q-25 -9 -48 -9z" />
    <glyph glyph-name="uni02E2" unicode="&#x2e2;" horiz-adv-x="306" 
d="M159 673q61 0 108 -34l-33 -44q-38 21 -72 21q-41 0 -41 -21q0 -11 11 -16.5t52 -15.5q49 -12 70.5 -31t21.5 -54q0 -36 -34.5 -61.5t-90.5 -25.5q-68 0 -121 39l39 42q42 -24 82 -24q46 0 46 26q0 13 -11 20t-54 17q-88 21 -88 81q0 35 31.5 58t83.5 23z" />
    <glyph glyph-name="uni02E3" unicode="&#x2e3;" horiz-adv-x="348" 
d="M221 542l97 -142h-87l-59 101l-57 -101h-85l97 140l-87 125h86l49 -86l46 86h83z" />
    <glyph glyph-name="uni02E4" unicode="&#x2e4;" horiz-adv-x="327" 
d="M213 400h-78v144l-16 5q-45 15 -67 39t-22 70q0 55 40.5 88t105.5 33q64 0 121 -44l-41 -42q-41 26 -74 26t-53 -15.5t-20 -46.5q0 -30 18 -44t60 -27l26 -8v-178z" />
    <glyph glyph-name="uni02E5" unicode="&#x2e5;" horiz-adv-x="344" 
d="M240 0v622h-210v67h284v-689h-74z" />
    <glyph glyph-name="uni02E6" unicode="&#x2e6;" horiz-adv-x="344" 
d="M240 689h74v-689h-74v461h-210v67h210v161z" />
    <glyph glyph-name="uni02E7" unicode="&#x2e7;" horiz-adv-x="344" 
d="M240 689h74v-689h-74v311h-210v67h210v311z" />
    <glyph glyph-name="uni02E8" unicode="&#x2e8;" horiz-adv-x="344" 
d="M240 689h74v-689h-74v161h-210v67h210v461z" />
    <glyph glyph-name="uni02E9" unicode="&#x2e9;" horiz-adv-x="344" 
d="M240 689h74v-689h-284v67h210v622z" />
    <glyph glyph-name="uni02EE" unicode="&#x2ee;" horiz-adv-x="374" 
d="M111 748q24 0 41.5 -17t17.5 -40q0 -19 -16 -52l-60 -128h-54l36 135q-23 18 -23 45q0 23 17.5 40t40.5 17zM271 748q25 0 42 -17t17 -40q0 -19 -16 -52l-60 -128h-54l36 135q-23 18 -23 45q0 23 17.5 40t40.5 17z" />
    <glyph glyph-name="gravecomb" unicode="&#x300;" horiz-adv-x="0" 
d="M-229 801l199 -114l-28 -49l-212 86z" />
    <glyph glyph-name="acutecomb" unicode="&#x301;" horiz-adv-x="0" 
d="M-71 801l41 -77l-212 -86l-28 49z" />
    <glyph glyph-name="uni0302" unicode="&#x302;" horiz-adv-x="0" 
d="M-323 634l-39 45l135 113h61l136 -113l-40 -45l-126 84z" />
    <glyph glyph-name="tildecomb" unicode="&#x303;" horiz-adv-x="0" 
d="M-139 656q-29 0 -64.5 24t-51.5 24q-28 0 -53 -46l-56 28q41 88 109 88q30 0 65 -24t51 -24q27 0 53 44l56 -28q-39 -86 -109 -86z" />
    <glyph glyph-name="uni0304" unicode="&#x304;" horiz-adv-x="0" 
d="M-30 667h-273v69h273v-69z" />
    <glyph glyph-name="uni0306" unicode="&#x306;" horiz-adv-x="0" 
d="M-183 643q-61 0 -102.5 35.5t-47.5 97.5l61 13q21 -76 89 -76q71 0 92 76l61 -13q-6 -62 -48.5 -97.5t-104.5 -35.5z" />
    <glyph glyph-name="uni0307" unicode="&#x307;" horiz-adv-x="0" 
d="M-95 780q29 0 47 -18t18 -45t-18 -44.5t-47 -17.5q-28 0 -46 17.5t-18 44.5t18 45t46 18z" />
    <glyph glyph-name="uni0308" unicode="&#x308;" horiz-adv-x="0" 
d="M-297 768q24 0 40.5 -16.5t16.5 -40.5t-16.5 -40.5t-40.5 -16.5q-25 0 -41.5 16.5t-16.5 40.5t16.5 40.5t41.5 16.5zM-88 768q25 0 41.5 -16.5t16.5 -40.5t-16.5 -40.5t-41.5 -16.5q-24 0 -40.5 16.5t-16.5 40.5t16.5 40.5t40.5 16.5z" />
    <glyph glyph-name="hookabovecomb" unicode="&#x309;" horiz-adv-x="0" 
d="M-180 611v94q39 5 55 13.5t16 29.5q0 36 -44 36q-28 0 -57 -13l-22 51q41 24 94 24q51 0 79.5 -24.5t28.5 -66.5q0 -73 -81 -86v-58h-69z" />
    <glyph glyph-name="uni030A" unicode="&#x30a;" horiz-adv-x="0" 
d="M-144 836q50 0 82 -30.5t32 -75.5t-32 -75.5t-82 -30.5t-82 30.5t-32 75.5t32 75.5t82 30.5zM-144 786q-25 0 -39 -15t-14 -41t14 -41t39 -15q24 0 38.5 15t14.5 41t-14 41t-39 15z" />
    <glyph glyph-name="uni030B" unicode="&#x30b;" horiz-adv-x="0" 
d="M-260 832l78 -41l-96 -152l-58 25zM-108 832l78 -41l-106 -157l-58 25z" />
    <glyph glyph-name="uni030C" unicode="&#x30c;" horiz-adv-x="0" 
d="M-69 785l39 -45l-135 -113h-61l-136 113l40 45l126 -84z" />
    <glyph glyph-name="uni030D" unicode="&#x30d;" horiz-adv-x="0" 
d="M-117 626v232h87v-232h-87z" />
    <glyph glyph-name="uni030F" unicode="&#x30f;" horiz-adv-x="0" 
d="M-258 832l86 -173l-58 -25l-106 157zM-106 832l76 -168l-58 -25l-96 152z" />
    <glyph glyph-name="uni0311" unicode="&#x311;" horiz-adv-x="0" 
d="M-183 760q62 0 104.5 -35.5t48.5 -97.5l-61 -13q-21 76 -92 76q-68 0 -89 -76l-61 13q6 62 47.5 97.5t102.5 35.5z" />
    <glyph glyph-name="uni0312" unicode="&#x312;" horiz-adv-x="0" 
d="M-93 583q-24 0 -40.5 16t-16.5 40q0 23 26 77l41 86h53l-29 -116q24 -21 24 -47q0 -24 -17 -40t-41 -16z" />
    <glyph glyph-name="uni0313" unicode="&#x313;" horiz-adv-x="0" 
d="M-87 802q24 0 40.5 -16t16.5 -40q0 -23 -26 -77l-41 -86h-53l29 116q-24 21 -24 47q0 24 17 40t41 16z" />
    <glyph glyph-name="uni0316" unicode="&#x316;" horiz-adv-x="0" 
d="M-231 -49l201 -107l-24 -49l-216 79z" />
    <glyph glyph-name="uni0317" unicode="&#x317;" horiz-adv-x="0" 
d="M-70 -49l40 -77l-216 -79l-24 49z" />
    <glyph glyph-name="uni0318" unicode="&#x318;" horiz-adv-x="0" 
d="M-94 -63h64v-290h-64v116h-140v57h140v117z" />
    <glyph glyph-name="uni0319" unicode="&#x319;" horiz-adv-x="0" 
d="M-171 -63v-117h140v-57h-140v-116h-64v290h64z" />
    <glyph glyph-name="uni031A" unicode="&#x31a;" horiz-adv-x="0" 
d="M-213 779h183v-185h-63v126h-120v59z" />
    <glyph glyph-name="uni031B" unicode="&#x31b;" horiz-adv-x="0" 
d="M-154 417l-10 55q57 6 57 48q0 37 -14 72l72 15q19 -33 19 -82q0 -103 -124 -108z" />
    <glyph glyph-name="uni031C" unicode="&#x31c;" horiz-adv-x="0" 
d="M-30 -276v50q-25 0 -39 15t-14 41t14 41t39 15v50q-50 0 -82 -30.5t-32 -75.5t32 -75.5t82 -30.5z" />
    <glyph glyph-name="uni031D" unicode="&#x31d;" horiz-adv-x="0" 
d="M-30 -251v-59h-300v59h118v160h63v-160h119z" />
    <glyph glyph-name="uni031E" unicode="&#x31e;" horiz-adv-x="0" 
d="M-30 -150h-119v-160h-63v160h-118v59h300v-59z" />
    <glyph glyph-name="uni031F" unicode="&#x31f;" horiz-adv-x="0" 
d="M-121 -82v-89h91v-65h-91v-87h-71v87h-91v65h91v89h71z" />
    <glyph glyph-name="uni0320" unicode="&#x320;" horiz-adv-x="0" 
d="M-283 -236v65h252v-65h-252z" />
    <glyph glyph-name="uni0321" unicode="&#x321;" horiz-adv-x="0" 
d="M-181 -213q-65 0 -115 38l36 58q39 -22 74 -22q64 0 64 74v66h92v-58q0 -76 -40.5 -116t-110.5 -40z" />
    <glyph glyph-name="dotbelowcomb" unicode="&#x323;" horiz-adv-x="0" 
d="M-94 -199q-29 0 -47 18t-18 45t18 44.5t47 17.5q28 0 46 -17.5t18 -44.5t-18 -45t-46 -18z" />
    <glyph glyph-name="uni0324" unicode="&#x324;" horiz-adv-x="0" 
d="M-297 -78q24 0 40.5 -16.5t16.5 -40.5t-16.5 -40.5t-40.5 -16.5q-25 0 -41.5 16.5t-16.5 40.5t16.5 40.5t41.5 16.5zM-88 -78q25 0 41.5 -16.5t16.5 -40.5t-16.5 -40.5t-41.5 -16.5q-24 0 -40.5 16.5t-16.5 40.5t16.5 40.5t40.5 16.5z" />
    <glyph glyph-name="uni0325" unicode="&#x325;" horiz-adv-x="0" 
d="M-144 -64q50 0 82 -30.5t32 -75.5t-32 -75.5t-82 -30.5t-82 30.5t-32 75.5t32 75.5t82 30.5zM-144 -114q-25 0 -39 -15t-14 -41t14 -41t39 -15q24 0 38.5 15t14.5 41t-14 41t-39 15z" />
    <glyph glyph-name="uni0326" unicode="&#x326;" horiz-adv-x="0" 
d="M-87 -77q24 0 40.5 -16t16.5 -40q0 -23 -26 -77l-41 -86h-53l29 116q-24 21 -24 47q0 24 17 40t41 16z" />
    <glyph glyph-name="uni0327" unicode="&#x327;" horiz-adv-x="0" 
d="M-123 16v-72q48 -4 70.5 -27.5t22.5 -57.5q0 -48 -35 -74t-89 -26q-59 0 -91 24l25 52q30 -16 63 -16q50 0 50 40q0 42 -89 42l14 115h59z" />
    <glyph glyph-name="uni0328" unicode="&#x328;" horiz-adv-x="0" 
d="M-44 33l14 -33q-71 -31 -97 -57.5t-26 -56.5q0 -48 56 -48q27 0 61 7l-9 -70q-35 -7 -63 -7q-57 0 -91 28.5t-34 72.5q0 55 46 95t143 69z" />
    <glyph glyph-name="uni0329" unicode="&#x329;" horiz-adv-x="0" 
d="M-129 -304v232h87v-232h-87z" />
    <glyph glyph-name="uni032A" unicode="&#x32a;" horiz-adv-x="0" 
d="M-310 -240v149h280v-149h-63v90h-154v-90h-63z" />
    <glyph glyph-name="uni032B" unicode="&#x32b;" horiz-adv-x="0" 
d="M-76 -61l46 -3q-4 -62 -32.5 -97.5t-69.5 -35.5q-64 0 -89 77q-26 -77 -91 -77q-41 0 -68.5 35.5t-31.5 97.5l44 3q10 -66 56 -66q23 0 38 18t19 48h67q10 -66 56 -66q23 0 38 18t18 48z" />
    <glyph glyph-name="uni032C" unicode="&#x32c;" horiz-adv-x="0" 
d="M-69 -71l39 -45l-135 -110h-61l-136 110l40 45l126 -81z" />
    <glyph glyph-name="uni032D" unicode="&#x32d;" horiz-adv-x="0" 
d="M-323 -226l-39 45l135 113h61l136 -113l-40 -45l-126 84z" />
    <glyph glyph-name="uni032F" unicode="&#x32f;" horiz-adv-x="0" 
d="M-183 -50q62 0 104.5 -35.5t48.5 -97.5l-61 -13q-21 76 -92 76q-68 0 -89 -76l-61 13q6 62 47.5 97.5t102.5 35.5z" />
    <glyph glyph-name="uni0330" unicode="&#x330;" horiz-adv-x="0" 
d="M-139 -184q-29 0 -64.5 24t-51.5 24q-28 0 -53 -46l-56 28q41 88 109 88q30 0 65 -24t51 -24q27 0 53 44l56 -28q-39 -86 -109 -86z" />
    <glyph glyph-name="uni0331" unicode="&#x331;" horiz-adv-x="0" 
d="M-30 -173h-273v69h273v-69z" />
    <glyph glyph-name="uni0332" unicode="&#x332;" horiz-adv-x="0" 
d="M-30 -173h-410v69h410v-69z" />
    <glyph glyph-name="uni0334" unicode="&#x334;" horiz-adv-x="0" 
d="M-164 250q-43 0 -91 31t-65 31q-39 0 -72 -54l-56 29q50 97 137 97q41 0 89 -30.5t67 -30.5q40 0 70 48l55 -30q-47 -91 -134 -91z" />
    <glyph glyph-name="uni0335" unicode="&#x335;" horiz-adv-x="0" 
d="M-343 274v78h283v-78h-283z" />
    <glyph glyph-name="uni0336" unicode="&#x336;" horiz-adv-x="0" 
d="M-756 274v78h726v-78h-726z" />
    <glyph glyph-name="uni0339" unicode="&#x339;" horiz-adv-x="0" 
d="M-143 -275q50 0 82 30.5t32 75.5t-32 75.5t-82 30.5v-50q25 0 39 -15t14 -41t-14 -41t-39 -15v-50z" />
    <glyph glyph-name="uni033A" unicode="&#x33a;" horiz-adv-x="0" 
d="M-310 -91h63v-90h154v90h63v-149h-280v149z" />
    <glyph glyph-name="uni033B" unicode="&#x33b;" horiz-adv-x="0" 
d="M-310 -240v172h280v-172h-280zM-250 -186h160v64h-160v-64z" />
    <glyph glyph-name="uni033C" unicode="&#x33c;" horiz-adv-x="0" 
d="M-132 -60q41 0 69.5 -35.5t32.5 -97.5l-46 -3q-3 30 -18 48t-38 18q-46 0 -56 -66h-67q-4 30 -19 48t-38 18q-46 0 -56 -66l-44 3q4 62 31.5 97.5t68.5 35.5q65 0 91 -77q25 77 89 77z" />
    <glyph glyph-name="uni033D" unicode="&#x33d;" horiz-adv-x="0" 
d="M-127 728l97 -128h-87l-59 91l-57 -91h-85l97 126l-87 112h86l49 -77l46 77h83z" />
    <glyph glyph-name="uni0342" unicode="&#x342;" horiz-adv-x="0" 
d="M-139 656q-29 0 -64.5 24t-51.5 24q-28 0 -53 -46l-56 28q41 88 109 88q30 0 65 -24t51 -24q27 0 53 44l56 -28q-39 -86 -109 -86z" />
    <glyph glyph-name="uni0345" unicode="&#x345;" horiz-adv-x="0" 
d="M-129 -190q-53 0 -82.5 28.5t-29.5 76.5v46h79v-44q0 -42 42 -42q28 0 56 17l34 -47q-46 -35 -99 -35z" />
    <glyph glyph-name="uni035C" unicode="&#x35c;" horiz-adv-x="0" 
d="M335 -81q-160 -131 -335 -131q-176 0 -335 132l40 53q136 -89 295 -89t295 89z" />
    <glyph glyph-name="uni0361" unicode="&#x361;" horiz-adv-x="0" 
d="M334 663l-40 -54q-136 89 -295 89t-295 -89l-40 53q159 132 335 132q175 0 335 -131z" />
    <glyph glyph-name="uni0370" unicode="&#x370;" horiz-adv-x="521" 
d="M496 323h-301v-323h-95v689h95v-288h301v-78z" />
    <glyph glyph-name="uni0371" unicode="&#x371;" horiz-adv-x="477" 
d="M452 310v-78h-259v-232h-92v357q0 88 -26 170l84 12q34 -72 34 -200v-29h259z" />
    <glyph glyph-name="uni0372" unicode="&#x372;" horiz-adv-x="583" 
d="M15 689h553v-288h-81v207h-148v-608h-95v608h-148v-208h-81v289z" />
    <glyph glyph-name="uni0373" unicode="&#x373;" horiz-adv-x="478" 
d="M474 527v-75h-187v-654l-92 -11v664h-95q-49 0 -89 -11l-16 72q42 15 107 15h372z" />
    <glyph glyph-name="uni0374" unicode="&#x374;" horiz-adv-x="304" 
d="M60 427l85 262h99l-115 -262h-69z" />
    <glyph glyph-name="uni0375" unicode="&#x375;" horiz-adv-x="304" 
d="M244 129l-85 -262h-99l115 262h69z" />
    <glyph glyph-name="uni0376" unicode="&#x376;" horiz-adv-x="683" 
d="M583 689v-689h-95v336q0 117 13 247l-279 -583h-122v689h95v-336q0 -140 -13 -250l282 586h119z" />
    <glyph glyph-name="uni0377" unicode="&#x377;" horiz-adv-x="600" 
d="M499 141q0 -38 10 -55t36 -29l-31 -69q-59 16 -84 52.5t-25 103.5q0 104 20 279l-219 -423h-111v527h91v-238q0 -117 -10 -182l216 420h107v-386z" />
    <glyph glyph-name="uni037A" unicode="&#x37a;" horiz-adv-x="295" 
d="M142 -190q-53 0 -82.5 28.5t-29.5 76.5v46h79v-44q0 -42 42 -42q28 0 56 17l34 -47q-46 -35 -99 -35z" />
    <glyph glyph-name="uni037B" unicode="&#x37b;" horiz-adv-x="511" 
d="M210 539q115 0 179.5 -74t64.5 -206q0 -127 -67.5 -199t-182.5 -72q-98 0 -174 58l42 59q67 -39 128 -39q73 0 114 47.5t41 147.5q0 202 -145 202q-73 0 -136 -39l-44 58q82 57 180 57z" />
    <glyph glyph-name="uni037C" unicode="&#x37c;" horiz-adv-x="511" 
d="M307 539q98 0 174 -57l-44 -58q-63 39 -126 39q-72 0 -113.5 -51t-41.5 -151t41 -147.5t114 -47.5q61 0 128 39l42 -59q-76 -58 -174 -58q-115 0 -182.5 72t-67.5 199t68 203.5t182 76.5zM321 326q29 0 47 -18t18 -45t-18 -44.5t-47 -17.5q-28 0 -46 17.5t-18 44.5t18 45
t46 18z" />
    <glyph glyph-name="uni037D" unicode="&#x37d;" horiz-adv-x="511" 
d="M210 539q115 0 179.5 -74t64.5 -206q0 -127 -67.5 -199t-182.5 -72q-98 0 -174 58l42 59q67 -39 128 -39q73 0 114 47.5t41 147.5q0 202 -145 202q-73 0 -136 -39l-44 58q82 57 180 57zM190 326q29 0 47 -18t18 -45t-18 -44.5t-47 -17.5q-28 0 -46 17.5t-18 44.5t18 45
t46 18z" />
    <glyph glyph-name="uni037E" unicode="&#x37e;" horiz-adv-x="240" 
d="M119 495q30 0 50 -20t20 -49t-20 -49.5t-50 -20.5q-29 0 -49 20.5t-20 49.5t20 49t49 20zM119 127q30 0 50 -20t20 -49q0 -31 -18 -71l-67 -153h-66l40 166q-28 21 -28 58q0 29 20 49t49 20z" />
    <glyph glyph-name="uni037F" unicode="&#x37f;" horiz-adv-x="305" 
d="M210 689v-593q0 -102 -44.5 -153t-135.5 -80l-25 69q66 26 88 61.5t22 106.5v589h95z" />
    <glyph glyph-name="tonos" unicode="&#x384;" horiz-adv-x="161" 
d="M33 807l98 -8l-35 -203h-66z" />
    <glyph glyph-name="dieresistonos" unicode="&#x385;" horiz-adv-x="385" 
d="M169 913l85 -7l-30 -176h-57zM88 738q24 0 40.5 -16.5t16.5 -40.5t-16.5 -40.5t-40.5 -16.5q-25 0 -41.5 16.5t-16.5 40.5t16.5 40.5t41.5 16.5zM297 738q25 0 41.5 -16.5t16.5 -40.5t-16.5 -40.5t-41.5 -16.5q-24 0 -40.5 16.5t-16.5 40.5t16.5 40.5t40.5 16.5z" />
    <glyph glyph-name="Alphatonos" unicode="&#x386;" horiz-adv-x="597" 
d="M167 689l-35 -203h-66l3 211zM491 0l-52 173h-261l-52 -173h-96l221 689h120l220 -689h-100zM201 250h215l-107 360z" />
    <glyph glyph-name="anoteleia" unicode="&#x387;" horiz-adv-x="240" 
d="M119 380q30 0 50 -20t20 -49t-20 -49.5t-50 -20.5q-29 0 -49 20.5t-20 49.5t20 49t49 20z" />
    <glyph glyph-name="Epsilontonos" unicode="&#x388;" horiz-adv-x="627" 
d="M57 697l98 -8l-35 -203h-66zM565 689l-11 -76h-267v-225h232v-76h-232v-236h286v-76h-381v689h373z" />
    <glyph glyph-name="Etatonos" unicode="&#x389;" horiz-adv-x="772" 
d="M57 697l98 -8l-35 -203h-66zM577 0v323h-290v-323h-95v689h95v-288h290v288h95v-689h-95z" />
    <glyph glyph-name="Iotatonos" unicode="&#x38a;" horiz-adv-x="387" 
d="M57 697l98 -8l-35 -203h-66zM287 689v-689h-95v689h95z" />
    <glyph glyph-name="Omicrontonos" unicode="&#x38c;" horiz-adv-x="761" 
d="M415 701q133 0 212 -93.5t79 -263.5q0 -168 -79.5 -262t-211.5 -94t-211.5 93t-79.5 262q0 168 80 263t211 95zM47 697l98 -8l-35 -203h-66zM415 623q-190 0 -190 -280q0 -143 50.5 -210t139.5 -67q190 0 190 278q0 279 -190 279z" />
    <glyph glyph-name="Upsilontonos" unicode="&#x38e;" horiz-adv-x="727" 
d="M57 697l98 -8l-35 -203h-66zM722 689l-222 -424v-265h-96v264l-222 425h105l168 -341l168 341h99z" />
    <glyph glyph-name="Omegatonos" unicode="&#x38f;" horiz-adv-x="763" 
d="M417 701q134 0 212.5 -91t78.5 -256q0 -108 -29 -170.5t-103 -103.5h110v-80h-215v80q71 24 103.5 90t32.5 184q0 269 -190 269q-90 0 -140 -66.5t-50 -203.5q0 -123 33.5 -186t101.5 -87v-80h-215v80h104q-67 36 -96 100t-29 173q0 161 80 254.5t211 93.5zM47 697l98 -8
l-35 -203h-66z" />
    <glyph glyph-name="iotadieresistonos" unicode="&#x390;" horiz-adv-x="283" 
d="M112 913l85 -7l-30 -176h-57zM31 738q24 0 40.5 -16.5t16.5 -40.5t-16.5 -40.5t-40.5 -16.5q-25 0 -41.5 16.5t-16.5 40.5t16.5 40.5t41.5 16.5zM240 738q25 0 41.5 -16.5t16.5 -40.5t-16.5 -40.5t-41.5 -16.5q-24 0 -40.5 16.5t-16.5 40.5t16.5 40.5t40.5 16.5zM182 527
v-386q0 -38 10 -55t36 -29l-29 -69q-60 16 -84.5 47.5t-24.5 94.5v397h92z" />
    <glyph glyph-name="Alpha" unicode="&#x391;" horiz-adv-x="573" 
d="M467 0l-52 173h-261l-52 -173h-96l221 689h120l220 -689h-100zM177 250h215l-107 360z" />
    <glyph glyph-name="Beta" unicode="&#x392;" horiz-adv-x="608" 
d="M404 364q71 -12 115 -50t44 -118q0 -196 -273 -196h-190v689h163q270 0 270 -174q0 -60 -37.5 -100t-91.5 -51zM273 614h-78v-217h104q60 0 98.5 29t38.5 82q0 60 -40.5 83t-122.5 23zM290 76q84 0 128.5 25t44.5 95q0 68 -43 98t-112 30h-113v-248h95z" />
    <glyph glyph-name="Gamma" unicode="&#x393;" horiz-adv-x="508" 
d="M498 689l-14 -82h-289v-607h-95v689h398z" />
    <glyph glyph-name="uni0394" unicode="&#x394;" horiz-adv-x="583" 
d="M352 689l225 -689h-571l226 689h120zM290 609l-165 -531h329z" />
    <glyph glyph-name="Epsilon" unicode="&#x395;" horiz-adv-x="535" 
d="M473 689l-11 -76h-267v-225h232v-76h-232v-236h286v-76h-381v689h373z" />
    <glyph glyph-name="Zeta" unicode="&#x396;" horiz-adv-x="522" 
d="M477 689v-77l-341 -531h341l-11 -81h-436v76l344 533h-308v80h411z" />
    <glyph glyph-name="Eta" unicode="&#x397;" horiz-adv-x="680" 
d="M485 0v323h-290v-323h-95v689h95v-288h290v288h95v-689h-95z" />
    <glyph glyph-name="Theta" unicode="&#x398;" horiz-adv-x="692" 
d="M346 701q133 0 212 -93.5t79 -263.5q0 -168 -79.5 -262t-211.5 -94t-211.5 93t-79.5 262q0 168 80 263t211 95zM346 623q-190 0 -190 -280q0 -143 50.5 -210t139.5 -67q190 0 190 278q0 279 -190 279zM465 389v-74h-239v74h239z" />
    <glyph glyph-name="Iota" unicode="&#x399;" horiz-adv-x="295" 
d="M195 689v-689h-95v689h95z" />
    </font>
</defs>
</svg>
